вход на сайт

Имя пользователя :
Пароль :

Восстановление пароля Регистрация
[3D] Мумии: Секреты фараонов / IMAX - Mummies: Secrets of the Pharaohs (Кейт Мелтон, документальный, драма, семейный, биография, 2007) [BDRip 1080p, Студийный (одноголосый, закадровый), Sub [Rus]] [Half OverUnder / Вертикальная анаморфная стереопара]
Рейтинг:
(голосов: 1)



[img]{THEME}/images/logopost.png[/img]



«Мумии: Секреты фараонов / IMAX - Mummies: Secrets of the Pharaohs»


¤ Год выпуска: 2007
¤ Страна:США
¤ Производство: Giant Screen Films, Gravity Pictures
¤ Жанр: документальный, драма, семейный, биография

¤ Режиссёр: Кейт Мелтон / Keith Melton
¤ В ролях: Элана Драго, Уильям Хоуп, Нассер Мемарзиа, Криспин Редмен, Дауд Шах, Борис Терраль, Brahim Boukhizzou, Bob Brier, Brahim Choukri, Angelique Corthals

¤ Перевод: Студийный (одноголосый, закадровый)
¤ Озвучка: не известно
¤ Субтитры: Sub [Rus]


Вы переноситесь в увлекательный и красивый мир древнего Египта. Это археологическое и научное приключение по следам исследователей и первооткрывателей, из рассказа которых складывается представление о культуре древнего Египта, о секретах мумий, о генетических находках.Взрастное ограничение: 0+


¤ Качество: BDRip 1080p
¤ Продолжительность: ~ 00:38:41 часа
¤ Формат: Matroska-MKV-
¤ Формат 3D: Half OverUnder / Вертикальная анаморфная стереопара
¤ Порядок ракурсов: левый ракурс первый

¤ Видео кодек: AVC [email protected]
¤ Аудио кодек: Audio Coding 3
¤ Видео: 1920x1080 (16:9) 23.976 fps, AVC ~15,5 kbps avg, 0.31 bit/pixel
¤ Аудио: 48 kHz, AC3 Dolby Digital, 3/2 (L,C,R,l,r) + LFE ch, ~640 kbps

MediaInfo ▼TextОбщее
Уникальный идентификатор : 193216003772571869131504329318256739475 (0x915C0C7A3A3C1AD690246E63A0CE0493)
Полное имя : D:DownloadsМумии - Секреты фараонов.2007.BDRip-1080p.mkv
Формат : Matroska
Версия формата : Version 2
Размер файла : 4,36 Гбайт
Продолжительность : 38 м.
Общий поток : 16,1 Мбит/сек
Дата кодирования : UTC 2012-09-15 12:36:16
Программа кодирования : mkvmerge v3.4.0 (Rapunzel) сборка от May 15 2010 09:38:20
Библиотека кодирования : libebml v0.8.0 + libmatroska v0.9.0

Видео
Идентификатор : 1
Формат : AVC
Формат/Информация : Advanced Video Codec
Профиль формата : [email protected]
Параметр CABAC формата : Да
Параметр ReFrames формата : 4 кадра
Идентификатор кодека : V_MPEG4/ISO/AVC
Продолжительность : 38 м.
Битрейт : 15,5 Мбит/сек
Ширина : 1920 пикселей
Высота : 1080 пикселей
Соотношение сторон : 16:9
Частота кадров : 23,976 кадра/сек
Цветовое пространство : YUV
Субдискретизация насыщенности : 4:2:0
Битовая глубина : 8 бит
Тип развёртки : Прогрессивная
Бит/(Пиксели*Кадры) : 0.313
Размер потока : 4,10 Гбайт (94%)
Заголовок : Mummies: Secrets of the Pharaohs (2007) BDRip 3D
Библиотека кодирования : x264 core 125 r2208 d9d2288
Настройки программы : cabac=1 / ref=4 / deblock=1:-3:-3 / analyse=0x3:0x113 / me=umh / subme=9 / psy=1 / psy_rd=1.00:0.00 / mixed_ref=1 / me_range=16 / chroma_me=1 / trellis=2 / 8x8dct=1 / cqm=0 / deadzone=21,11 / fast_pskip=0 / chroma_qp_offset=-2 / threads=12 / lookahead_threads=2 / sliced_threads=0 / nr=0 / decimate=0 / interlaced=0 / bluray_compat=0 / constrained_intra=0 / bframes=6 / b_pyramid=2 / b_adapt=2 / b_bias=0 / direct=3 / weightb=1 / open_gop=0 / weightp=2 / keyint=250 / keyint_min=23 / scenecut=40 / intra_refresh=0 / rc=2pass / mbtree=0 / bitrate=15540 / ratetol=1.0 / qcomp=0.60 / qpmin=10 / qpmax=51 / qpstep=4 / cplxblur=20.0 / qblur=0.5 / ip_ratio=1.40 / pb_ratio=1.30 / aq=1:1.00
Язык : English
Default : Да
Forced : Нет

Аудио
Идентификатор : 2
Формат : AC-3
Формат/Информация : Audio Coding 3
Расширение режима : CM (complete main)
Идентификатор кодека : A_AC3
Продолжительность : 38 м.
Вид битрейта : Постоянный
Битрейт : 640 Кбит/сек
Каналы : 6 каналов
Расположение каналов : Front: L C R, Side: L R, LFE
Частота : 48,0 КГц
Битовая глубина : 16 бит
Метод сжатия : С потерями
Размер потока : 177 Мбайт (4%)
Заголовок : AC3 5.1 @ 640 kbps
Язык : Russian
Default : Да
Forced : Нет

Текст #1
Идентификатор : 3
Формат : UTF-8
Идентификатор кодека : S_TEXT/UTF8
Идентификатор кодека/Информация : UTF-8 Plain Text
Заголовок : [SRT/UTF8] Forced
Язык : Russian
Default : Да
Forced : Нет

Текст #2
Идентификатор : 4
Ф
c1a49ecab961c04e80298cf9ffef162b5d860e9a[3D] Мумии: Секреты фараонов / IMAX - Mummies: Secrets of the Pharaohs (Кейт Мелтон, документальный, драма, семейный, биография, 2007) [BDRip 1080p, Студийный (одноголосый, закадровый), Sub [Rus]] [Half OverUnder / Вертикальная анаморфная стереопара] [3D] Мумии: Секреты фараонов / IMAX - Mummies: Secrets of the Pharaohs (Кейт Мелтон, документальный, драма, семейный, биография, 2007) [BDRip 1080p, Студийный (одноголосый, закадровый), Sub [Rus]] [Half OverUnder / Вертикальная анаморфная стереопара] " />

Аплоадер: Админ, дата: 16-09-2012, 11:00, торрент скачан: 359 раз

Понравилась раздача? Посмотрите эти:
  • [3D] Zомби каникулы (Кирилл Кемниц, Ужасы, триллер, комедия, 2013) [BDRip 1 ...
  • [3D] G.I. Joe: Бросок кобры 2 / G.I. Joe: Retaliation [Theatrical Cut] (Джо ...
  • [3D] Мадагаскар 3 / Madagascar 3: Europes Most Wanted (Эрик Дарнелл, Том Ма ...
  • [3D] Тростниковые жабы: Оккупация / Cane Toads: The Conquest (Марк Льюис , ...
  • [3D] Тростниковые жабы: Оккупация / Cane Toads: The Conquest (Марк Льюис , ...
  • [3D] Санктум в 3Д / Sanctum in 3D (Aлистeр Гpирсoн, триллер, драма, приключ ...
  • [3D] Тачки 2 / Cars 2 (Джон Лассетер, Брэд Льюис, мультфильм, комедия, прик ...
  • [3D] Президент Линкольн: Охотник на вампиров / Abraham Lincoln: Vampire Hun ...
  • [3D] Мартышки в космосе: Ответный удар / Space Chimps 2: Zartog Strikes Bac ...
  • [3D] Повелитель стихий 3D / The Last Airbender 3D (М. Найт Шьямалан, фэнтез ...
  • [3D] IMAX Динозавры: Гиганты Патагонии 3Д / Dinosaurs: Giants of Patagonia ...
  • [3D] The Black Eyed Peas / I Gotta Feeling (Pop, 2010) [BDRip-AVC] [Half Ov ...
  • [3D] Вторая Мировая война в 3Д / WWII in 3D (Джордж Миллер / George Miller, ...
  • [3D] Цирк! Цирк! Цирк! 3D/ Orla Frosnapper 3D (Питер Додд) [2011 г., мультф ...
  • [3D] Новая земля в 3Д / Nova zembla 3D (Рейну Урлеманс, история, 2011) [BDr ...
  • [3D] Путешествие к Центру Земли 3D / Journey to the Center of the Earth 3D ...
  • [3D] Дельфины и киты 3D / Dolphins and Whales: Tribes of the Ocean 3D (Жан- ...
  • [3D] Секретная служба Санта-Клауса / Arthur Christmas (Сара Смит, Бэрри Кук ...
  • [3D] В случае убийства набирайте «М» в 3Д / Dial M for Murder 3D (Alfred Hi ...
  • Заражение / Contagion (Стивен Содерберг, Фантастика, 2011) [BDRip 1080p, Пр ...
  • Информация
    Посетители, находящиеся в группе Гости, не могут оставлять комментарии к данной публикации.