вход на сайт

Имя пользователя :
Пароль :

Восстановление пароля Регистрация
[3D] Дельфины и киты 3D / Dolphins and Whales: Tribes of the Ocean 3D (Жан-Жак Мантелло, документальный, короткометражка, приключения, 2008) [BDRip, Профессиональный (полное дублирование)] [Half OverUnder / Вертикальная анаморфная стереопара]
Рейтинг:
(голосов: 1)



[img]{THEME}/images/logopost.png[/img]



«Дельфины и киты 3D / Dolphins and Whales: Tribes of the Ocean 3D»

«Dive in at IMAX 3D Theatres»

¤ Год выпуска: 2008
¤ Страна:ВеликобританияБагамы
¤ Производство: 3D Entertainment, Gavin McKinney Underwater Productions
¤ Жанр: документальный, короткометражка, приключения

¤ Режиссёр: Жан-Жак Мантелло / Jean-Jacques Mantello
¤ В ролях: Дэрил Ханна

¤ Перевод: Профессиональный (полное дублирование)
¤ Субтитры: нет

« Описание »
Этот великолепный и зрелищный фильм в трехмерном изображении, снятый на коралловых рифах Багамских островов, перенесет вас в эти удивительные места: вы узнаете много интересных фактов о диких дельфинах и китах, способных к не простому общению и взаимодействию. Фильм ярко показывает жизнь этих изящных, величественных, но все же, подвергаемых опасности морских существ.



« Тех.Данные »
¤ Качество: BDRip
¤ Продолжительность: ~ 00:42:26 часа
¤ Формат: Matroska-MKV-
¤ Формат 3D: Half OverUnder / Вертикальная анаморфная стереопара
¤ Порядок ракурсов: левый ракурс первый

¤ Видео кодек: AVC [email protected]
¤ Аудио кодек: Audio Coding 3
¤ Видео: 1920x1080 (16:9) 23.976 fps, AVC ~13,9 kbps avg, 0.27 bit/pixel
¤ Аудио: 48.00 kHz, AC3, 6 ch, ~ 448.00 kbps

MediaInfo ▼TextОбщее
Уникальный идентификатор : 251084526866597890956973885027338736822 (0xBCE51EF26A6393F08741B78B9948D4B6)
Полное имя : D:Downloads[3D] Дельфины и Киты.2008.BDRip.mkv
Формат : Matroska
Версия формата : Version 3 / Version 2
Размер файла : 4,33 Гбайт
Продолжительность : 42 м.
Общий поток : 14,6 Мбит/сек
Дата кодирования : UTC 2012-05-27 19:24:06
Программа кодирования : mkvmerge v5.4.0 (Piper) built on Mar 10 2012 13:34:39
Библиотека кодирования : libebml v1.2.3 + libmatroska v1.3.0

Видео
Идентификатор : 1
Формат : AVC
Формат/Информация : Advanced Video Codec
Профиль формата : [email protected]
MultiView_Count : 2
MultiView_Layout : Top-Bottom (left eye first)
Параметр CABAC формата : Да
Параметр ReFrames формата : 4 кадра
Идентификатор кодека : V_MPEG4/ISO/AVC
Продолжительность : 42 м.
Битрейт : 13,9 Мбит/сек
Ширина : 1920 пикселей
Высота : 1080 пикселей
Соотношение сторон : 16:9
Частота кадров : 23,976 кадра/сек
Цветовое пространство : YUV
Субдискретизация насыщенности : 4:2:0
Битовая глубина : 8 бит
Тип развёртки : Прогрессивная
Бит/(Пиксели*Кадры) : 0.279
Размер потока : 4,12 Гбайт (95%)
Библиотека кодирования : x264 core 125 r2200 999b753
Настройки программы : cabac=1 / ref=4 / deblock=1:-1:-1 / analyse=0x3:0x133 / me=umh / subme=9 / psy=1 / psy_rd=1.00:0.15 / mixed_ref=1 / me_range=16 / chroma_me=1 / trellis=2 / 8x8dct=1 / cqm=0 / deadzone=21,11 / fast_pskip=1 / chroma_qp_offset=-3 / threads=9 / lookahead_threads=1 / sliced_threads=0 / nr=0 / decimate=1 / interlaced=0 / bluray_compat=0 / constrained_intra=0 / bframes=6 / b_pyramid=2 / b_adapt=2 / b_bias=0 / direct=3 / weightb=1 / open_gop=0 / weightp=2 / keyint=250 / keyint_min=23 / scenecut=40 / intra_refresh=0 / rc_lookahead=60 / rc=crf / mbtree=1 / crf=18.0 / qcomp=0.60 / qpmin=0 / qpmax=69 / qpstep=4 / ip_ratio=1.40 / aq=1:1.00
Язык : English
Default : Да
Forced : Нет

Аудио
Идентификатор : 2
Формат : AC-3
Формат/Информация : Audio Coding 3
Расширение режима : CM (complete main)
Идентификатор кодека : A_AC3
Продолжительность : 42 м.
Вид битрейта : Постоянный
Битрейт : 448 Кбит/сек
Каналы : 6 каналов
Расположение каналов : Front: L C R, Side: L R, LFE
Частота : 48,0 КГц
Битовая глубина : 16 бит
Метод сжатия : С потерями
Размер потока : 136 Мбайт (3%)
Язык : Russian
Default : Да
Forced : Нет

004566af6de7ded8aa01f4b759407ffbc4f528c3[3D] Дельфины и киты 3D / Dolphins and Whales: Tribes of the Ocean 3D (Жан-Жак Мантелло, документальный, короткометражка, приключения, 2008) [BDRip, Профессиональный (полное дублирование)] [Half OverUnder / Вертикальная анаморфная стереопара] [3D] Дельфины и киты 3D / Dolphins and Whales: Tribes of the Ocean 3D (Жан-Жак Мантелло, документальный, короткометражка, приключения, 2008) [BDRip, Профессиональный (полное дублирование)] [Half OverUnder / Вертикальная анаморфная стереопара] " />

Аплоадер: Админ, дата: 5-08-2012, 17:35, торрент скачан: 359 раз

Понравилась раздача? Посмотрите эти:
  • [3D] Zомби каникулы (Кирилл Кемниц, Ужасы, триллер, комедия, 2013) [BDRip 1 ...
  • [3D] G.I. Joe: Бросок кобры 2 / G.I. Joe: Retaliation [Theatrical Cut] (Джо ...
  • [3D] Мадагаскар 3 / Madagascar 3: Europes Most Wanted (Эрик Дарнелл, Том Ма ...
  • [3D] Тростниковые жабы: Оккупация / Cane Toads: The Conquest (Марк Льюис , ...
  • [3D] Тростниковые жабы: Оккупация / Cane Toads: The Conquest (Марк Льюис , ...
  • [3D] Первый мститель / Captain America: The First Avenger (Джо Джонстон / J ...
  • [3D] Конан-варвар / Conan the Barbarian (Маркус Ниспел, Фэнтези, боевик, п ...
  • [3D] Санктум в 3Д / Sanctum in 3D (Aлистeр Гpирсoн, триллер, драма, приключ ...
  • [3D] Тачки 2 / Cars 2 (Джон Лассетер, Брэд Льюис, мультфильм, комедия, прик ...
  • [3D] Президент Линкольн: Охотник на вампиров / Abraham Lincoln: Vampire Hun ...
  • [3D] Мартышки в космосе: Ответный удар / Space Chimps 2: Zartog Strikes Bac ...
  • [3D] Повелитель стихий 3D / The Last Airbender 3D (М. Найт Шьямалан, фэнтез ...
  • [3D] Сайлент Хилл 2 / Silent Hill: Revelation 3D (Майкл Дж. Бассетт, Ужасы, ...
  • [3D] Жизнь Пи / Life of Pi (Энг Ли, драма, приключения, 2012) [BDRip 1080p, ...
  • [3D] The Black Eyed Peas / I Gotta Feeling (Pop, 2010) [BDRip-AVC] [Half Ov ...
  • [3D] Вторая Мировая война в 3Д / WWII in 3D (Джордж Миллер / George Miller, ...
  • [3D] Цирк! Цирк! Цирк! 3D/ Orla Frosnapper 3D (Питер Додд) [2011 г., мультф ...
  • [3D] Новая земля в 3Д / Nova zembla 3D (Рейну Урлеманс, история, 2011) [BDr ...
  • [3D] Путешествие к Центру Земли 3D / Journey to the Center of the Earth 3D ...
  • [3D] Мумии: Секреты фараонов / IMAX - Mummies: Secrets of the Pharaohs (Кей ...
  • [3D] Секретная служба Санта-Клауса / Arthur Christmas (Сара Смит, Бэрри Кук ...
  • [3D] В случае убийства набирайте «М» в 3Д / Dial M for Murder 3D (Alfred Hi ...
  • Лоракс: Серенада / The Lorax: Serenade (Кайл Балда, мультфильм, комедия, му ...
  • Дельфины и и киты / Dolphins and Whales: Tribes of the Ocean (Документальны ...
  • [3D] Дельфины и киты 3Д / Dolphins and Whales: Tribes of the Ocean 3D (Жан- ...
  • Информация
    Посетители, находящиеся в группе Гости, не могут оставлять комментарии к данной публикации.