вход на сайт

Имя пользователя :
Пароль :

Восстановление пароля Регистрация
[3D] Крылатые монстры 3Д / Flying Monsters 3D (Мэттью Диас, Документальный, 2011) [BDRip 1080p (Оригинал)] Half OverUnder / Вертикальная анаморфная стереопара
Рейтинг:
(голосов: 1)



[img]{THEME}/images/logopost.png[/img]



Крылатые монстры 3Д/ Flying Monsters 3D

Год выпуска: 2011
Страна: Великобритания.
Производство: Serengeti Entertainment, Atlantic Productions.
Жанр: Документальный.

Режиссёр: Мэттью Диас / Matthew Dyas
В ролях: Дэвид Аттенборо, Дуглас А. Лоусон

Язык: Английский


Описание: Миллионы лет назад, когда на Земле царили динозавры, в воздухе царили летающие ящеры — птерозавры. В фильме известный натуралист и ведущий Дэвид Аттенборо рассказывает об этих существах.

IMDB: 7.4 (72)
КиноПоиск: 7.5 (39)



Качество: BDRip 1080p
Продолжительность: 01:10:40 час

Формат: MKV
Формат 3D: Half OverUnder / Вертикальная анаморфная стереопара
Порядок ракурсов: левый ракурс первый
Видео кодек: x264
Аудио кодек: AC3
Видео: AVC / 1920х1080p / 23,976 fps / 11.3 Mbps/ Bits/(Pixel*Frame) : 0.227
Аудио: Английский / AC3 / 48 KHz / 5.1 ch / 640 Kbps
Субтитры: Отсутствуют

MediaInfo ▼
General
UniqueID : 245993487640393872044773477325046366280 (0xB9109F556A64A53FA3DE683070654048)
Complete name : F:DownloadsFlyingMonsters-3D.2011.halfOU.AC3(ash61).mkv
Format : Matroska
File size : 6.00 GiB
Duration : 1h 10mn
Overall bit rate : 12.1 Mbps
Movie name : Flying Monsters 3D with David Attenborough (ash61)
Encoded date : UTC 2011-11-18 13:12:39
Writing application : mkvmerge v3.4.0 (Rapunzel) сборка от May 15 2010 09:38:20
Writing library : libebml v0.8.0 + libmatroska v0.9.0
Video
ID : 1
Format : AVC
Format/Info : Advanced Video Codec
Format profile : [email protected]
Format settings, CABAC : Yes
Format settings, ReFrames : 4 frames
Codec ID : V_MPEG4/ISO/AVC
Duration : 1h 10mn
Bit rate : 11.3 Mbps
Width : 1 920 pixels
Height : 1 080 pixels
Display aspect ratio : 16:9
Frame rate : 23.976 fps
Color space : YUV
Chroma subsampling : 4:2:0
Bit depth : 8 bits
Scan type : Progressive
Bits/(Pixel*Frame) : 0.227
Stream size : 5.56 GiB (93%)
Title : Rip by Ash61
Writing library : x264 core 113 r1884 7313bb5
Encoding settings : cabac=1 / ref=4 / deblock=1:-3:-3 / analyse=0x3:0x113 / me=umh / subme=9 / psy=1 / psy_rd=1.00:0.15 / mixed_ref=1 / me_range=16 / chroma_me=1 / trellis=2 / 8x8dct=1 / cqm=0 / deadzone=21,11 / fast_pskip=1 / chroma_qp_offset=-3 / threads=3 / sliced_threads=0 / nr=0 / decimate=1 / interlaced=0 / constrained_intra=0 / bframes=6 / b_pyramid=2 / b_adapt=1 / b_bias=0 / direct=1 / weightb=1 / open_gop=0 / weightp=2 / keyint=250 / keyint_min=23 / scenecut=40 / intra_refresh=0 / rc_lookahead=60 / rc=crf / mbtree=1 / crf=18.0 / qcomp=0.70 / qpmin=0 / qpmax=69 / qpstep=4 / ip_ratio=1.40 / aq=1:1.00
Audio
ID : 2
Format : AC-3
Format/Info : Audio Coding 3
Mode extension : CM (complete main)
Codec ID : A_AC3
Duration : 1h 10mn
Bit rate mode : Constant
Bit rate : 640 Kbps
Channel(s) : 6 channels
Channel positions : Front: L C R, Side: L R, LFE
Sampling rate : 48.0 KHz
Bit depth : 16 bits
Compression mode : Lossy
Stream size : 324 MiB (5%)
Language : English
Menu
00:00:00.000 : :01
00:07:24.027 : :02
00:13:11.040 : :03
00:21:49.266 : :04
00:28:23.994 : :05
00:35:48.772 : :06
00:40:41.564 : :07
00:45:56.045 : :08
00:53:42.594 : :09
01:05:00.772 : :10


6940cdaab2164c6990061098cd88ba1bd988b8a8[3D] Крылатые монстры 3Д / Flying Monsters 3D (Мэттью Диас, Документальный, 2011) [BDRip 1080p (Оригинал)] Half OverUnder / Вертикальная анаморфная стереопара [3D] Крылатые монстры 3Д / Flying Monsters 3D (Мэттью Диас, Документальный, 2011) [BDRip 1080p (Оригинал)] Half OverUnder / Вертикальная анаморфная стереопара " />

Аплоадер: Админ, дата: 4-01-2012, 12:02, торрент скачан: 359 раз

Понравилась раздача? Посмотрите эти:
  • [3D] Гибрид в 3Д / Hybrid 3D (Эрик Валетт / Eric Valette) [2010, Триллер, У ...
  • [3D] Пункт назначения 4 3Д / The Final Destination 3D (Дэвид Р. Эллис / Dav ...
  • [3D] На Глубине 3Д / Into the Deep 3D (Ховард Холл / Howard Hall, документа ...
  • [3D]Конан-варвар в 3Д / Conan the Barbarian 3D (Маркус Ниспел / Marcus Nisp ...
  • [3D] LG Demo Disc 3D (Демо, 2011) [BDrip-AVC 1080p ][Оригинал][Anamorph Ov ...
  • [3D] Звёздные собаки: Белка и Стрелка (Святослав Ушаков, Инна Евланникова, ...
  • [3D] Panasonic Demo Disc 3D 2010-2011 [BDrip-AVC 1080p-720p][Оригинал][Anam ...
  • [3D] Кот в сапогах / Puss in Boots (Крис Миллер / Chris Miller, Мультфильм, ...
  • [3D] Смешарики. Начало (Денис Чернов, Мультфильм, 2011) [BDrip, Дублированн ...
  • [3D] Приключения Тинтина: Тайна Единорога / The Adventures of Tintin (Стиве ...
  • [3D] Кот и цыплёнок / I Tawt I Taw а Puddy Tat (Мэттью ОКаллаган / Matthew ...
  • [3D] Гибрид / Hybrid (Эрик Валетт / Eric Valette, Триллер, Ужасы, 2010) [BD ...
  • [3D] Глаз ребенка / Childs Eye (Оксид Пан, ужасы, 2010) [BDRip, Дублированн ...
  • [3D] Мой кровавый Валентин / My Bloody Valentine (Патрик Люссье, ужасы, три ...
  • [3D] Призрачный гонщик 2 / Ghost Rider: Spirit of Vengeance (Марк Невелдайн ...
  • [3D] Чудеса океана в 3Д / Ocean Wonderland 3D (Жан-Жак Мантелло / Jean-Jacq ...
  • [3D] От винта 3D (Ольга Лопато, Мультфильм, комедия, приключения, 2012) [BD ...
  • [3D] Лас-Вегас в 3Д / Las Vegas 3D (Benjamin Eicher, Timo Joh. Mayer, Докум ...
  • [3D] Кукарача 3D (Армен Адилханян, Мультфильм, Комедия, 2011) [BDRip-AVC, Н ...
  • [3D] Кошмар перед Рождеством 3D / The Nightmare Before Christmas 3D (Генри ...
  • Крылатые монстры / Flying Monsters 3D with David Attenborough (Мэттью Диас, ...
  • Крылатые монстры с Дэвидом Аттенборо / Flying Monsters with David Attenboro ...
  • [Трейлер] Крылатые монстры / Flying Monsters 3D with David Attenborough (М ...
  • [3D] Крылатые монстры 3D / Flying Monsters 3D (Мэттью Диас, Документальный ...
  • Крылатые монстры / Flying Monsters 3D with David Attenborough (Документальн ...
  • Информация
    Посетители, находящиеся в группе Гости, не могут оставлять комментарии к данной публикации.