вход на сайт

Имя пользователя :
Пароль :

Восстановление пароля Регистрация
[3D] На Глубине 3Д / Into the Deep 3D (Ховард Холл / Howard Hall, документальный, релаксация, 1994) [BDrip-AVC, не требуется][ Half OverUnder / Вертикальная анаморфная стереопара]
Рейтинг:
(голосов: 1)



[img]{THEME}/images/logopost.png[/img]



На Глубине 3Д / Into the Deep 3D

Год выпуска: 1994
Страна: США, Канада, Франция, Япония
Производство: IMAX Corporation
Жанр: документальный, релаксация

Режиссёр: Ховард Холл / Howard Hall
В ролях: Кейт Неллиган

Перевод: не требуется
Субтитры: Отсутствуют

Описание: «Жизнь глубин» переносит зрителей в захватывающее 3D-исследование жизни подводного мира. Впервые используя IMAX 3D-камеру под водой, удалось захватить картины уникальной морской жизни и великолепные подводные пейзажи. Зрители сами становится обитателями морского дна, открывая для себя калейдоскоп жизни в океане через призму технологии IMAX 3D.

"MediaInfo" ▼General
Format : Matroska
File size : 3.70 GiB
Duration : 34mn 20s
Overall bit rate : 15.4 Mbps
Encoded date : UTC 2011-05-01 11:50:23
Writing application : mkvmerge v3.4.0 (Rapunzel) сборка от May 15 2010 09:38:20
Writing library : libebml v0.8.0 + libmatroska v0.9.0

Video
ID : 1
Format : AVC
Format/Info : Advanced Video Codec
Format profile : [email protected]
Format settings, CABAC : Yes
Format settings, ReFrames : 4 frames
Codec ID : V_MPEG4/ISO/AVC
Duration : 34mn 20s
Bit rate : 14.5 Mbps
Width : 1 920 pixels
Height : 1 080 pixels
Display aspect ratio : 0.889
Original display aspect ratio : 16:9
Frame rate : 23.976 fps
Color space : YUV
Chroma subsampling : 4:2:0
Bit depth : 8 bits
Scan type : Progressive
Bits/(Pixel*Frame) : 0.291
Stream size : 3.47 GiB (94%)
Writing library : x264 core 113 r1884 7313bb5
Encoding settings : cabac=1 / ref=4 / deblock=1:-1:-1 / analyse=0x3:0x113 / me=umh / subme=9 / psy=1 / psy_rd=1.00:0.15 / mixed_ref=1 / me_range=16 / chroma_me=1 / trellis=2 / 8x8dct=1 / cqm=0 / deadzone=21,11 / fast_pskip=1 / chroma_qp_offset=-3 / threads=3 / sliced_threads=0 / nr=0 / decimate=1 / interlaced=0 / constrained_intra=0 / bframes=4 / b_pyramid=2 / b_adapt=2 / b_bias=0 / direct=3 / weightb=1 / open_gop=0 / weightp=2 / keyint=250 / keyint_min=23 / scenecut=40 / intra_refresh=0 / rc_lookahead=40 / rc=crf / mbtree=1 / crf=18.0 / qcomp=0.60 / qpmin=0 / qpmax=69 / qpstep=4 / ip_ratio=1.40 / aq=1:1.00

Audio
ID : 2
Format : AC-3
Format/Info : Audio Coding 3
Mode extension : CM (complete main)
Codec ID : A_AC3
Duration : 34mn 20s
Bit rate mode : Constant
Bit rate : 640 Kbps
Channel(s) : 6 channels
Channel positions : Front: L C R, Side: L R, LFE
Sampling rate : 48.0 KHz
Bit depth : 16 bits
Compression mode : Lossy
Stream size : 157 MiB (4%)
Language : English

Качество: BDrip
Продолжительность: 00:34:19 часа

Формат: MKV
Видео кодек: x264
Аудио кодек: AC3
Видео: AVC / 1920х1080р / 23.976 fps / 14.5 Mbps / 0,29 bit/pixel
Аудио: AC3 / 5.1 channels / 640 kbps / 48 KHz


743d105e608502e32262f59fb790bd8b8a0129bd[3D] На Глубине 3Д / Into the Deep 3D (Ховард Холл / Howard Hall, документальный, релаксация, 1994) [BDrip-AVC, не требуется][ Half OverUnder / Вертикальная анаморфная стереопара] [3D] На Глубине 3Д / Into the Deep 3D (Ховард Холл / Howard Hall, документальный, релаксация, 1994) [BDrip-AVC, не требуется][ Half OverUnder / Вертикальная анаморфная стереопара] " />

Аплоадер: Админ, дата: 3-11-2011, 00:10, торрент скачан: 359 раз

Понравилась раздача? Посмотрите эти:
  • [3D] Гибрид в 3Д / Hybrid 3D (Эрик Валетт / Eric Valette) [2010, Триллер, У ...
  • [3D] Пункт назначения 4 3Д / The Final Destination 3D (Дэвид Р. Эллис / Dav ...
  • [3D] Первый мститель 3Д / Captain America: The First Avenger 3D (Джо Джонст ...
  • [3D]Конан-варвар в 3Д / Conan the Barbarian 3D (Маркус Ниспел / Marcus Nisp ...
  • [3D] LG Demo Disc 3D (Демо, 2011) [BDrip-AVC 1080p ][Оригинал][Anamorph Ov ...
  • [3D] Ролики для сравнения вертикальных и горизонтального анаморфов (Тест, 2 ...
  • [3D] Крылатые монстры 3Д / Flying Monsters 3D (Мэттью Диас, Документальны ...
  • [3D] Дикий океан 3D / Wild Ocean 3D (Люк Крессвелл, Стив МакНиколас, Докуме ...
  • [3D] Титаник 3Д трейлер / Titanic 3d Trailer [DCPrip-AVC, (дублированный Ру ...
  • [3D] Panasonic Demo Disc 3D 2010-2011 [BDrip-AVC 1080p-720p][Оригинал][Anam ...
  • [3D] Кот в сапогах / Puss in Boots (Крис Миллер / Chris Miller, Мультфильм, ...
  • [3D] Смешарики. Начало (Денис Чернов, Мультфильм, 2011) [BDrip, Дублированн ...
  • [3D] Кот и цыплёнок / I Tawt I Taw а Puddy Tat (Мэттью ОКаллаган / Matthew ...
  • [3D] Гибрид / Hybrid (Эрик Валетт / Eric Valette, Триллер, Ужасы, 2010) [BD ...
  • [3D] Глаз ребенка / Childs Eye (Оксид Пан, ужасы, 2010) [BDRip, Дублированн ...
  • [3D] Мой кровавый Валентин / My Bloody Valentine (Патрик Люссье, ужасы, три ...
  • [3D] Чудеса океана в 3Д / Ocean Wonderland 3D (Жан-Жак Мантелло / Jean-Jacq ...
  • [3D] Люди в черном 3 / Men in Black III (Барри Зонненфельд, Фантастика, бое ...
  • [3D] Лас-Вегас в 3Д / Las Vegas 3D (Benjamin Eicher, Timo Joh. Mayer, Докум ...
  • [3D] Кукарача 3D (Армен Адилханян, Мультфильм, Комедия, 2011) [BDRip-AVC, Н ...
  • [3D] Кошмар перед Рождеством 3D / The Nightmare Before Christmas 3D (Генри ...
  • IMAX: На глубине морской / IMAX: Under the Sea (Ховард Холл, документальный ...
  • Mylene Farmer / Du Temps [2011, Pop, HDTVRip]
  • Mylene Farmer / Bleu Noir [2011, Pop, HDTVRip]
  • Madonna / Girl Gone Wild [2012, Pop, HDTV]
  • Информация
    Посетители, находящиеся в группе Гости, не могут оставлять комментарии к данной публикации.