вход на сайт

Имя пользователя :
Пароль :

Восстановление пароля Регистрация
[3D] Тростниковые жабы: Оккупация 3Д / Cane Toads: The Conquest 3D(Марк Льюис / Mark Lewis, документальный фильм, 2010) [HDTV, Профессиональный (одноголосый)][SideBySide / Горизонтальная анаморфная стереопара]
Рейтинг:
(голосов: 1)



[img]{THEME}/images/logopost.png[/img]



Тростниковые жабы: Оккупация 3Д / Cane Toads: The Conquest 3D

Год выпуска: 2010
Страна: США, Австралия
Производство: 3D BY PANASONIC
Жанр: документальный фильм

Режиссёр: Марк Льюис / Mark Lewis

Перевод: Профессиональный (одноголосый)
Озвучка: Иван Охлобыстин
Субтитры: Отсутствуют

Описание: Ядовитые тростниковые жабы были завезены в Австралию в 1935 году для борьбы с жуками, разорявшими сахарные плантации. С тех пор жабы размножились так, что стали представлять угрозу всей экосистеме страны. Передовые технологии позволили создать полный напряжения и юмора фильм с точки зрения жаб. Впервые человек имеет возможность с головой окунуться в мир этих загадочных существ и почувствовать себя жабой, захватившей целый континент и вышедшей на охоту в поисках пропитания…

IMDB: рейтинг 7.010 (93 голоса)
КиноПоиск: рейтинг 6.4 (208 голосов)

"Media Info" ▼
General
Format : MPEG-TS
File size : 8.71 GiB
Duration : 1h 29mn
Overall bit rate : 13.9 Mbps
Video #322
ID : 322 (0x142)
Menu ID : 14102 (0x3716)
Format : AVC
Format/Info : Advanced Video Codec
Format profile : [email protected]
Format settings, CABAC : Yes
Format settings, ReFrames : 3 frames
Duration : 1h 29mn
Bit rate : 12.7 Mbps
Width : 1 920 pixels
Height : 1 080 pixels
Display aspect ratio : 16:9
Frame rate : 25.000 fps
Standard : Component
Color space : YUV
Chroma subsampling : 4:2:0
Bit depth : 8 bits
Scan type : Interlaced
Scan order : Top Field First
Bits/(Pixel*Frame) : 0.245
Stream size : 7.99 GiB (92%)
Color primaries : BT.709-5, BT.1361, IEC 61966-2-4, SMPTE RP177
Transfer characteristics : BT.709-5, BT.1361
Matrix coefficients : BT.709-5, BT.1361, IEC 61966-2-4 709, SMPTE RP177
Audio #402
ID : 402 (0x192)
Menu ID : 14102 (0x3716)
Format : AC-3
Format/Info : Audio Coding 3
Mode extension : CM (complete main)
Duration : 1h 29mn
Bit rate mode : Constant
Bit rate : 448 Kbps
Channel(s) : 2 channels
Channel positions : Front: L R
Sampling rate : 48.0 KHz
Video delay : -660ms
Stream size : 288 MiB (3%)
Language : Russian
Language, more info : Clean effects

Качество: HDTV
Продолжительность: 1:29:58 час.

Формат 3d: SideBySide
Порядок ракурсов: Параллельная пара
Формат: MPEG-TS
Видео кодек: AVC
Аудио кодек: AC3
Видео: 12.7 Mbps, 1920*1080, 25 fps
Аудио: AC3, 448 Kbps, 2 channels, Language : Russian



dbc693a206c4caca81c97f89818506b30b56e295[3D] Тростниковые жабы: Оккупация 3Д / Cane Toads: The Conquest 3D(Марк Льюис / Mark Lewis, документальный фильм, 2010) [HDTV, Профессиональный (одноголосый)][SideBySide / Горизонтальная анаморфная стереопара] [3D] Тростниковые жабы: Оккупация 3Д / Cane Toads: The Conquest 3D(Марк Льюис / Mark Lewis, документальный фильм, 2010) [HDTV, Профессиональный (одноголосый)][SideBySide / Горизонтальная анаморфная стереопара] " />

Аплоадер: Админ, дата: 7-12-2011, 02:25, торрент скачан: 359 раз

Понравилась раздача? Посмотрите эти:
  • [3D] Демо-ролики 3D от Samsung / Delicious Fight 3D & Time Magician 3D (Ли ...
  • Парад Победы. Москва. Красная Площадь / Военный парад, посвящённый 68-й год ...
  • [NG] Превосходство бегемота / The superiority of the hippo (Документальный, ...
  • [3D] Тростниковые жабы: Оккупация / Cane Toads: The Conquest (Марк Льюис , ...
  • [3D] Тростниковые жабы: Оккупация / Cane Toads: The Conquest (Марк Льюис , ...
  • [3D] Britney Spears Live: The Femme Fatale Tour (Тед Кенни, Дэниель «Облако ...
  • [3Д] Территория тьмы 3Д / Dark Country 3D (Томас Джейн,Триллер, детектив,20 ...
  • [3D] Другой мир: Пробуждение / Underworld: Awakening (Манс Марлинд , Ужасы ...
  • [3D] Зов предков / Call of the Wild (Ричард Габай, драма, приключения, семе ...
  • [3D] Непристойное кино 3Д / Sex Pot 3D ( Эрик Форсберг / Eric Forsberg, Ко ...
  • [3D] Michael Jackson / Earth Song (Поп-музыка, 2009) [BDRip-AVC, Перевод не ...
  • Чемпионат Испании 2011-12 / 35-й тур / Барселона - Реал / Футбол HD [Футбол ...
  • Голос // Выпуск 13 / Суперфинал (ТВ-шоу, 29.12.2012) [HDTV |1080i|, Не треб ...
  • Melody Gardot / Mira [2012, Jazz, Acoustic, HDTV 1080i]
  • [3D] Подборка рекламных роликов LG / LG Contents Show Reel ( Реклама, 2010) ...
  • [3D]TOP GIRL 3D (Музыкальный клип демонстрирующий 3Д эффекты с максимальным ...
  • [3D] Тёмный мир (Антон Мегердичев, Фэнтези, триллер, 2010) [BD Rip 1080p, О ...
  • [3D] Рыбки в аквариуме 3D (КИВ, Документальное кино, 2012) [HDTV] [Anamorph ...
  • [3D] TOP GIRL 3D (Оригинальный клип от LG, демонстрирующий 3D эффекты с мак ...
  • [3D] Hannah Montana & Miley Cyrus: Best of Both Worlds Concert Tour 3D (Брю ...
  • [3D] Забери мою душу 3D / My Soul to Take 3D(Уэс Крэйвен,ужасы, триллер, де ...
  • [3D] SKY 3D [Демонстрационный ролик с вылетами из экрана, 2011,HDTV] [Half ...
  • [3D] Лига Чемпионов 2011-12 / Финал / Бавария - Челси [Футбол, 19.05.2012г. ...
  • [3D] Аквариум 3D ( Документальный, Видовой, Релакс, 2011) [HDTV, Перевод не ...
  • Выжить любой ценой - Сезон 7 / Ultimate Survival - Season 7 (Документальный ...
  • Информация
    Посетители, находящиеся в группе Гости, не могут оставлять комментарии к данной публикации.