вход на сайт

Имя пользователя :
Пароль :

Восстановление пароля Регистрация
[3D] Я, робот / I, Robot (Алекс Пройас, фантастика, боевик, триллер, детектив, 2004) [BDRip 1080p, Дублированный, Профессиональный многоголосый, Оригинал + Субтитры] [Half OverUnder / Вертикальная анаморфная стереопара]
Рейтинг:
(голосов: 1)



[img]{THEME}/images/logopost.png[/img]



Я, робот / I, Robot

Год выпуска: 2004
Страна: США, Германия
Производство: 20th Century Fox Film Corporation, Canlaws Productions, Mediastream Vierte Film GmbH & Co. Vermarktungs KG
Жанр: фантастика, боевик, триллер, детектив

Режиссёр: Алекс Пройас
В ролях: Уилл Смит, Бриджет Мойнэхэн, Алан Тьюдик, Джеймс Кромуэлл, Брюс Гринвуд, Чи МакБрайд, Шайа ЛаБаф, Адриан Рикард, Джерри Вассерман, Фиона Хоган

Перевод: Дублированный (Русский), Многоголосый закадровый (Украинский), Оригинал (English)
Субтитры: Русские Форсированные (включены по умолчанию)(всего одна фраза), Русские Полные, English Full

Описание: Действие фильма происходит в будущем (2035 г.), где роботы являются обычными помощниками человека. Главный герой — полицейский, «не переваривающий» роботов, расследует дело об убийстве, в которое оказывается вовлечен робот.
Речь идет о возможном нарушении «Закона о Роботах» (робот никогда не поднимет руки на человека), что, в принципе, невозможно. Ситуация близка к катастрофической: если машины могут нарушать этот закон, то уже ничто не остановит их от захвата контроля над людьми, тем более, что человечество уже давно стало полностью зависимо от роботов…



Качество: BDRip 1080p
Продолжительность: 01:54:44
Формат / Контейнер: MKV
Формат 3D: Half OverUnder / Вертикальная анаморфная стереопара
Порядок ракурсов: Левый ракурс первый

Видео кодек: x264
Аудио кодек: AC3
Видео: AVC / 23,976 fps / 1920х1080p / 18.6 Mbps, Bits/Pixel: 0.374
Аудио #1: Русский / AC3 / 48 KHz / 5.1 ch / 640 Kbps (Дубляж - BD EUR)
Аудио #2: Украинский / AC3 / 48 KHz / 5.1 ch / 448 Kbps (MVO - BD EUR)
Аудио #3: Английский / AC3 / 48 KHz / 5.1 ch / 640 Kbps

MediaInfo ▼General
Unique ID : 244117802778359364035096200915438218732 (0xB7A760EE15B67FFD9F3C7F25D4EF2DEC)
Complete name : G:DownloadsIRobot(3D)2004.halfOU(Ash61).mkv
Format : Matroska
Format version : Version 2
File size : 16.6 GiB
Duration : 1h 54mn
Overall bit rate : 20.8 Mbps
Movie name : I, Robot (3D) 2004 (by Ash61)
Encoded date : UTC 2012-10-25 20:11:44
Writing application : mkvmerge v5.8.0 (No Sleep / Pillow) built on Sep 2 2012 15:37:04
Writing library : libebml v1.2.3 + libmatroska v1.3.0
Video
ID : 1
Format : AVC
Format/Info : Advanced Video Codec
Format profile : [email protected]
Format settings, CABAC : Yes
Format settings, ReFrames : 4 frames
Codec ID : V_MPEG4/ISO/AVC
Duration : 1h 54mn
Bit rate : 18.6 Mbps
Width : 1 920 pixels
Height : 1 080 pixels
Display aspect ratio : 16:9
Frame rate mode : Constant
Frame rate : 23.976 fps
Color space : YUV
Chroma subsampling : 4:2:0
Bit depth : 8 bits
Scan type : Progressive
Bits/(Pixel*Frame) : 0.374
Stream size : 14.9 GiB (90%)
Title : BDrip by Ash61
Writing library : x264 core 119 r2106 07efeb4
Encoding settings : cabac=1 / ref=4 / deblock=1:-3:-3 / analyse=0x3:0x113 / me=umh / subme=9 / psy=1 / psy_rd=1.00:0.15 / mixed_ref=1 / me_range=16 / chroma_me=1 / trellis=2 / 8x8dct=1 / cqm=0 / deadzone=21,11 / fast_pskip=1 / chroma_qp_offset=-3 / threads=12 / sliced_threads=0 / nr=0 / decimate=1 / interlaced=0 / bluray_compat=0 / constrained_intra=0 / bframes=6 / b_pyramid=2 / b_adapt=2 / b_bias=0 / direct=3 / weightb=1 / open_gop=0 / weightp=2 / keyint=250 / keyint_min=23 / scenecut=40 / intra_refresh=0 / rc_lookahead=60 / rc=crf / mbtree=1 / crf=17.0 / qcomp=0.70 / qpmin=10 / qpmax=51 / qpstep=4 / vbv_maxrate=40000 / vbv_bufsize=40000 / crf_max=0.0 / nal_hrd=none / frame-packing=4 / ip_ratio=1.40 / aq=1:0.70
Language : English
Default : Yes
Forced : No
Audio #1
ID : 2
Format : AC-3
Format/Info : Audio Coding 3
Mode extension : CM (complete main)
Format settings, Endianness : Big
Codec ID : A_AC3
Duration : 1h 54mn
Bit rate mode : Constant
Bit rate : 640 Kbps
Channel(s) : 6 channels
Channel positions : Front: L C R, Side: L R, LFE
Sampling rate : 48.0 KHz
Bit depth : 16 bits
Compression mode : Lossy
Stream size : 525 MiB (3%)
Title : Дубляж - BD EUR
Language : Russian
Default : Yes
Forced : No
Audi
a277982a0d8cf1349340603a067db9924bfe7722[3D] Я, робот / I, Robot (Алекс Пройас, фантастика, боевик, триллер, детектив, 2004) [BDRip 1080p, Дублированный, Профессиональный многоголосый, Оригинал + Субтитры] [Half OverUnder / Вертикальная анаморфная стереопара] [3D] Я, робот / I, Robot (Алекс Пройас, фантастика, боевик, триллер, детектив, 2004) [BDRip 1080p, Дублированный, Профессиональный многоголосый, Оригинал + Субтитры] [Half OverUnder / Вертикальная анаморфная стереопара] " />

Аплоадер: Админ, дата: 12-11-2012, 22:13, торрент скачан: 359 раз

Понравилась раздача? Посмотрите эти:
  • [3D] Война миров Z / World War Z [Theatrical Cut] (Марк Форстер, Ужасы, Фа ...
  • [3D] Стартрек: Возмездие / Star Trek Into Darkness (Джей Джей Абрамс / J.J. ...
  • [3D] Я, робот / I, Robot (Алекс Пройас, фантастика, боевик, триллер, детек ...
  • Я, робот / I, Robot [2004, Фантастика, Боевик, Триллер, Детектив, BDRip] by ...
  • [3D] Крылатые монстры 3Д / Flying Monsters 3D (Мэттью Диас, Документальны ...
  • [3D] Кот в сапогах / Puss in Boots (Крис Миллер / Chris Miller, Мультфильм, ...
  • [3D] Кот и цыплёнок / I Tawt I Taw а Puddy Tat (Мэттью ОКаллаган / Matthew ...
  • [3D] Другой мир: Пробуждение / Underworld: Awakening (Монс Морлинд, Бьёрн С ...
  • [3D] Глаз ребенка / Childs Eye (Оксид Пан, ужасы, 2010) [BDRip, Дублированн ...
  • [3D] Мcтители / The Аvengers (Джосс Уидон, Фантастика, Боевик, 2012) [BDRip ...
  • [3D] Люди в черном 3 / Men in Black III (Барри Зонненфельд, Фантастика, бое ...
  • [3D] Президент Линкольн: Охотник на вампиров / Abraham Lincoln: Vampire Hun ...
  • [3D] Мадагаскар 3 / Madagascar 3: Europes Most Wanted (Эрик Дарнелл, Том Ма ...
  • [3D] Я, робот / I, Robot (Алекс Пройас, фантастика, боевик, триллер, детект ...
  • [3D] Лас-Вегас в 3Д / Las Vegas 3D (Benjamin Eicher, Timo Joh. Mayer, Докум ...
  • Я, робот / I, Robot (Алекс Пройас / фантастика, боевик, триллер, детектив / ...
  • Я,Робот/I,Robot[PSPVIDEO]
  • Я, робот / I, Robot (Алекс Пройас, Фантастика, боевик, триллер, детектив, 2 ...
  • Я, робот / I, Robot (Алекс Пройас, боевик, фантастика, 2004) [BDRip AVC, ду ...
  • Я, робот / I, Robot (Алекс Пройас, Фантастика, Боевик, Триллер, Детектив, 2 ...
  • Я, робот / I, Robot (Алекс Пройас, фантастика, боевик, триллер, детектив, 2 ...
  • Я, Робот / I, Robot (Алекс Пройас, 2004, фантастика, боевик) [HDRip 720p, п ...
  • Я, робот / I, Robot (Алекс Пройас / Alex Proyas, фантастика, боевик, трилле ...
  • [ENG] Я, РОБОТ / I, ROBOT (Алекс Пройас, фантастика, боевик, триллер, детек ...
  • [3D] Я, робот / I, Robot (Алекс Пройас, фантастика, боевик, триллер, детект ...
  • Информация
    Посетители, находящиеся в группе Гости, не могут оставлять комментарии к данной публикации.