вход на сайт

Имя пользователя :
Пароль :

Восстановление пароля Регистрация
[3D] Люди в черном 3 / Men in Black III (Барри Зонненфельд, Фантастика, боевик, комедия, приключения, 2012) [BDRip 1080p, Дубляж, Оригинал] [Half OverUnder / Вертикальная анаморфная стереопара]
Рейтинг:
(голосов: 1)



[img]{THEME}/images/logopost.png[/img]



Люди в черном 3 / Men in Black III
«Вперёд в прошлое»


Год выпуска: 2012
Страна: США
Производство: Amblin Entertainment, Media Magik Entertainment, Parkes/MacDonald Productions
Жанр: Фантастика, боевик, комедия, приключения

Режиссёр: Барри Зонненфельд
В ролях: Уилл Смит, Джош Бролин, Томми Ли Джонс, Джемейн Клемент, Эмма Томпсон, Майкл Стулбарг, Майк Колтер, Николь Шерзингер, Майкл Чернус, Элис Ив

Перевод: Дубляж, Оригинал
Субтитры: Отсутствуют

Описание: Агент Джей узнает, что никакого защитного галактического щита, способного отразить иноземный удар, не существует. Агент Кей не построил его, потому что был убит в 1969 году. Агент Джей должен совершить путешествие во времени, чтобы спасти Землю и жизнь напарника.
Доп. информация:
Формат 3D: Half OverUnder / Вертикальная анаморфная стереопара
Порядок ракурсов: Левый ракурс первый


Качество: BDRip 1080p
Продолжительность: 01:45:49 час.


Формат: MKV
Видео кодек: x264
Аудио кодек: AC3
Видео: 1920x1080 (16:9), 23.976 fps, x264 ~17.8 mb/s, 0.358 bit/pixel
Аудио#1: 48 kHz, AC3 Dolby Digital, 3/2 (L,C,R,l,r) + LFE ch, ~640 kbps - (Дубляж))
Аудио#2: 48 kHz, AC3 Dolby Digital, 3/2 (L,C,R,l,r) + LFE ch, ~640 kbps - (English)


Дата премьеры (мир): 14 мая 2012
Дата премьеры (РФ): 24 мая 2012, «WDSSPR»

MediaInfo ▼General
Unique ID : 182538109496148863403775592597268750168 (0x89538FA4B6200E03ABD084B9766C5F58)
Complete name : E:MIB33DMenInBlack.3D.2012.BD3DRip.Half.OU.x264.AC3.Rus.Eng.3D.mkv
Format : Matroska
Format version : Version 2
File size : 14.4 GiB
Duration : 1h 45mn
Overall bit rate : 19.5 Mbps
Movie name : Men in Black
Encoded date : UTC 2012-09-11 09:32:40
Writing application : mkvmerge v3.4.0 (Rapunzel) сборка от May 15 2010 09:38:20
Writing library : libebml v0.8.0 + libmatroska v0.9.0

Video
ID : 1
Format : AVC
Format/Info : Advanced Video Codec
Format profile : [email protected]
Format settings, CABAC : Yes
Format settings, ReFrames : 4 frames
Codec ID : V_MPEG4/ISO/AVC
Duration : 1h 45mn
Bit rate : 17.8 Mbps
Width : 1 920 pixels
Height : 1 080 pixels
Display aspect ratio : 16:9
Frame rate : 23.976 fps
Color space : YUV
Chroma subsampling : 4:2:0
Bit depth : 8 bits
Scan type : Progressive
Bits/(Pixel*Frame) : 0.358
Stream size : 13.2 GiB (91%)
Writing library : x264 core 125 r2208 d9d2288
Encoding settings : cabac=1 / ref=4 / deblock=1:-3:-3 / analyse=0x3:0x133 / me=umh / subme=9 / psy=1 / psy_rd=1.00:0.15 / mixed_ref=1 / me_range=32 / chroma_me=1 / trellis=2 / 8x8dct=1 / cqm=0 / deadzone=21,11 / fast_pskip=0 / chroma_qp_offset=-3 / threads=3 / lookahead_threads=1 / sliced_threads=0 / nr=0 / decimate=1 / interlaced=0 / bluray_compat=0 / constrained_intra=0 / bframes=9 / b_pyramid=2 / b_adapt=2 / b_bias=0 / direct=3 / weightb=1 / open_gop=0 / weightp=2 / keyint=250 / keyint_min=23 / scenecut=40 / intra_refresh=0 / rc_lookahead=60 / rc=crf / mbtree=1 / crf=16.0 / qcomp=0.60 / qpmin=0 / qpmax=69 / qpstep=4 / vbv_maxrate=50000 / vbv_bufsize=50000 / crf_max=0.0 / nal_hrd=none / ip_ratio=1.40 / aq=1:0.90
Default : No
Forced : No

Audio #1
ID : 2
Format : AC-3
Format/Info : Audio Coding 3
Mode extension : CM (complete main)
Codec ID : A_AC3
Duration : 1h 45mn
Bit rate mode : Constant
Bit rate : 640 Kbps
Channel(s) : 6 channels
Channel positions : Front: L C R, Side: L R, LFE
Sampling rate : 48.0 KHz
Bit depth : 16 bits
Compression mode : Lossy
Stream size : 484 MiB (3%)
Title : Dub
Language : Russian
Default : Yes
Forced : No

Audio #2
ID : 3
Format : AC-3
Format/Info : Audio Coding 3
Mode extension : CM (complete main)
Codec ID : A_AC3
Duration : 1h 45mn
Bit rate mode : Constant
Bit rate : 640 Kbps
Channel(s) : 6 channels
Channel positions : Front: L C R, Side: L R, LFE
Sampling rate : 48.0 KHz
Bit depth : 16 bits
Compression mode : Lossy
Stream size : 484 MiB (3%)
Title
f2f0ad75767de75563dd0a4e98843709fb1c8813[3D] Люди в черном 3 / Men in Black III (Барри Зонненфельд, Фантастика, боевик, комедия, приключения, 2012) [BDRip 1080p, Дубляж, Оригинал] [Half OverUnder / Вертикальная анаморфная стереопара] [3D] Люди в черном 3 / Men in Black III (Барри Зонненфельд, Фантастика, боевик, комедия, приключения, 2012) [BDRip 1080p, Дубляж, Оригинал] [Half OverUnder / Вертикальная анаморфная стереопара] " />

Аплоадер: Админ, дата: 12-09-2012, 08:31, торрент скачан: 359 раз

Понравилась раздача? Посмотрите эти:
  • [3D] Война миров Z / World War Z [Theatrical Cut] (Марк Форстер, Ужасы, Фа ...
  • [3D] Стартрек: Возмездие / Star Trek Into Darkness (Джей Джей Абрамс / J.J. ...
  • Люди в черном 3 / Men in Black III (Барри Зонненфельд, фантастика, боевик, ...
  • Люди в черном 3 / Men in Black III (Барри Зонненфельд, Фантастика, боевик, ...
  • Люди в черном 3 / Men in Black III (Барри Зонненфельд, Фантастика, боевик, ...
  • Люди в черном 3 / Men in Black 3 (Барри Зонненфельд, фантастика, боевик, ко ...
  • [3D] Крылатые монстры 3Д / Flying Monsters 3D (Мэттью Диас, Документальны ...
  • [3D] Кот и цыплёнок / I Tawt I Taw а Puddy Tat (Мэттью ОКаллаган / Matthew ...
  • [3D] Глаз ребенка / Childs Eye (Оксид Пан, ужасы, 2010) [BDRip, Дублированн ...
  • [3D] Мcтители / The Аvengers (Джосс Уидон, Фантастика, Боевик, 2012) [BDRip ...
  • [3D] Мcтители / The Аvengers (Джосс Уидон, Фантастика, Боевик, 2012) [BDRip ...
  • [3D] Люди в черном 3 / Men in Black III (Барри Зонненфельд, Фантастика, бое ...
  • [3D] От винта 3D (Ольга Лопато, Мультфильм, комедия, приключения, 2012) [BD ...
  • [3D] Люди в черном 3 / Men in Black III (Барри Зонненфельд, Фантастика, бое ...
  • Люди в черном 3 / Men in Black III (Барри Зонненфельд, Фантастика, боевик, ...
  • Люди в черном 3 / Men in Black III (Барри Зонненфельд, Фантастика, боевик, ...
  • Люди в черном 3 / Men in Black 3 (Барри Зонненфельд, фантастика, боевик, к ...
  • Люди в черном 3 / Men in Black III (Барри Зонненфельд, фантастика, боевик, ...
  • Люди в черном 3 / Men in Black III (Барри Зонненфельд, Фантастика, боевик, ...
  • [iPhone, iPod] Люди в черном 3 / Men in Black III (Барри Зонненфельд, фанта ...
  • Люди в чёрном 3 / Men in Black III (Барри Зонненфельд, Фантастика, Боевик, ...
  • Люди в чёрном 3 / Men in Black III (Барри Зонненфельд, Фантастика, Боевик, ...
  • Люди в черном 3 / Men in Black III (Барри Зонненфельд, Фантастика, боевик, ...
  • Люди в черном 3 / Men in Black III (Барри Зонненфельд, Фантастика, боевик, ...
  • Люди в черном 3 / Men in Black III (Барри Зонненфельд, Фантастика, боевик, ...
  • Информация
    Посетители, находящиеся в группе Гости, не могут оставлять комментарии к данной публикации.