вход на сайт

Имя пользователя :
Пароль :

Восстановление пароля Регистрация
[3D] Пираньи 3Д / Piranha 3D (Александр Ажа / Alexandre Aja, ужасы, боевик, триллер, 2010) [BDRip, Дубляж + Оригинал] OverUnder / Вертикальная стереопара
Рейтинг:
(голосов: 1)



[img]{THEME}/images/logopost.png[/img]



Пираньи 3Д / Piranha 3D

Год выпуска: 2010
Страна: США
Производство: Atmosphere Entertainment MM
Жанр: ужасы, боевик, триллер

Режиссёр: Александр Ажа
В ролях: Ричард Дрейфусс, Винг Рэймс, Элизабет Шу, Кристофер Ллойд, Элай Рот, Джерри О`Коннелл, Стивен Р. МакКуин, Джессика Зор, Келли Брук, Райли Стил

Перевод: Дубляж + Оригинал
Субтитры: Отсутствуют

Описание:20 тысяч подростков курортного городка у озера Виктория готовятся к празднованию ежегодного праздника начала лета. Но ночное землетрясение высвобождает сотни тысяч доисторических пираний прямо накануне торжества. Очаровательная шериф, ее подчиненные-полицейские и доктор Горден Рэйбэнкс решают сделать все, чтобы веселый праздник молодежи в озере не превратился в кровавое пиршество. Но пираньи уже знают ответ, кто победит: молодость или многовековая жажда крови…

IMDB: 5.516 (15 161)
КиноПоиск: 5.80 (41 052)

Качество: BDRip
Продолжительность: 01:28:18 час.

Формат: MKV
Формат 3D: OverUnder / Вертикальная стереопара
Порядок ракурсов: левый ракурс первый
Видео кодек: AVC
Аудио кодек: AC3, DTS
Видео: 1920х1600 (1,200), 23.976 fps, AVC ~13,2 Мбит/сек, 0.179 bit/pixel
Аудио#1: 48 kHz, AC3 Dolby Digital, 3/2 (L,C,R,l,r) + LFE ch, ~448 kbps (Rus DUB)
Аудио#2: 48 kHz, DTS, 3/2 (L,C,R,l,r) + LFE ch, ~755 kbps (Original Eng)

MediaInfo ▼Общее
Общее
Уникальный идентификатор : 177931253496035764932750197295480786938 (0x85DC501B332AE93887A9A776BD274FFA)
Полное имя : Пираньи_OU_1080p.mkv
Формат : Matroska
Размер файла : 9,07 Гбайт
Продолжительность : 1 ч. 28 м.
Общий поток : 14,7 Мбит/сек
Дата кодирования : UTC 2011-02-24 19:26:26
Программа кодирования : mkvmerge v3.4.0 (Rapunzel) сборка от May 15 2010 09:38:20
Библиотека кодирования : libebml v0.8.0 + libmatroska v0.9.0
Видео
Идентификатор : 1
Формат : AVC
Формат/Информация : Advanced Video Codec
Профиль формата : [email protected]
Параметр CABAC формата : Да
Параметр ReFrames формата : 4 кадры
Идентификатор кодека : V_MPEG4/ISO/AVC
Продолжительность : 1 ч. 28 м.
Битрейт : 13,2 Мбит/сек
Ширина : 1920 пикс.
Высота : 1600 пикс.
Соотношение сторон : 1,200
Частота кадров : 23,976 кадр/сек
Цветовое пространство : YUV
Подвыборка цветности : 4:2:0
Битовая глубина : 8 бит
Тип развёртки : Прогрессивная
Бит/(Пиксели*Кадры) : 0.179
Размер потока : 8,15 Гбайт (90%)
Библиотека кодирования : x264 core 112 r1834 a51816a
Настройки программы : cabac=1 / ref=4 / deblock=1:-3:-3 / analyse=0x3:0x133 / me=tesa / subme=10 / psy=1 / psy_rd=1.00:0.00 / mixed_ref=1 / me_range=16 / chroma_me=1 / trellis=2 / 8x8dct=1 / cqm=0 / deadzone=21,11 / fast_pskip=0 / chroma_qp_offset=-2 / threads=12 / sliced_threads=0 / nr=0 / decimate=0 / interlaced=0 / constrained_intra=0 / bframes=8 / b_pyramid=2 / b_adapt=2 / b_bias=0 / direct=3 / weightb=1 / open_gop=0 / weightp=2 / keyint=250 / keyint_min=23 / scenecut=40 / intra_refresh=0 / rc=crf / mbtree=0 / crf=22.0 / qcomp=0.75 / qpmin=0 / qpmax=51 / qpstep=4 / ip_ratio=1.40 / pb_ratio=1.30 / aq=1:0.90
Аудио #1
Идентификатор : 2
Формат : AC-3
Формат/Информация : Audio Coding 3
Расширение режима : CM (complete main)
Идентификатор кодека : A_AC3
Продолжительность : 1 ч. 28 м.
Вид битрейта : Постоянный
Битрейт : 448 Кбит/сек
Канал(ы) : 6 канала(ов)
Расположение каналов : Front: L C R, Side: L R, LFE
Частота : 48,0 КГц
Битовая глубина : 16 бит
Метод сжатия : С потерями
Размер потока : 283 Мбайт (3%)
Язык : Russian
Аудио #2
Идентификатор : 3
Формат : DTS
Формат/Информация : Digital Theater Systems
Идентификатор кодека : A_DTS
Продолжительность : 1 ч. 28 м.
Вид битрейта : Постоянный
Битрейт : 755 Кбит/сек
Канал(ы) : 6 канала(ов)
Расположение каналов : Front: L C R, Side: L R, LFE
Частота : 48,0 КГц
Битовая глубина : 24 бит
Метод сжатия : С потерями
Размер потока : 477 Мбайт (5%)
Язык : English
Меню
00:00:00.000 : :1. Hungry WHirlpool
00:07:22.817 : :2. Spring Break
00:13:04.659 : :3. Dead Dis
312c4cba5cd276842d98c831f07f865e468e2741[3D] Пираньи 3Д / Piranha 3D (Александр Ажа / Alexandre Aja, ужасы, боевик, триллер, 2010) [BDRip, Дубляж + Оригинал] OverUnder / Вертикальная стереопара [3D] Пираньи 3Д / Piranha 3D (Александр Ажа / Alexandre Aja, ужасы, боевик, триллер, 2010) [BDRip, Дубляж + Оригинал] OverUnder / Вертикальная стереопара " />

Аплоадер: Админ, дата: 11-06-2012, 23:01, торрент скачан: 359 раз

Понравилась раздача? Посмотрите эти:
  • [3D] Zомби каникулы (Кирилл Кемниц, Ужасы, триллер, комедия, 2013) [BDRip 1 ...
  • [3D] Апартаменты 1303 3D / Apartment 1303 3D (Мишель Таверна, Ужасы, трилле ...
  • [3D] Жизнь Пи 3D / Life of Pi 3D (Энг Ли, Фэнтези, драма, приключения, 2012 ...
  • [3D] G.I. Joe: Бросок кобры 2 / G.I. Joe: Retaliation [Theatrical Cut] (Джо ...
  • Пираньи 3D / Piranha (Александр Ажа, ужасы, комедия, 2010) [HDRip, Авторски ...
  • [3D] Мадагаскар 3 / Madagascar 3: Europes Most Wanted (Эрик Дарнелл, Том Ма ...
  • [3D] Президент Линкольн: Охотник на вампиров / Abraham Lincoln: Vampire Hun ...
  • [3D] Сайлент Хилл 2 / Silent Hill: Revelation 3D (Майкл Дж. Бассетт, Ужасы, ...
  • Пираньи 2D / Piranha (Александр Ажа, ужасы, триллер, комедия, 2010) [DVDRip ...
  • Пираньи / Piranha (Александр Ажа / Alexandre Aja, ужасы, триллер, комедия, ...
  • Пираньи 3DD / Piranha 3DD (Джон Гулажер, ужасы, триллер, 2012) [BDRip-AVC, ...
  • [3D] Пираньи 3Д / Piranha 3D (Александр Ажа / Alexandre Aja, ужасы, боевик, ...
  • [3D] Шевели ластами! 3D / Sammys avonturen: De geheime doorgang in 3D (Бен ...
  • [3D] The Black Eyed Peas / I Gotta Feeling (Pop, 2010) [BDRip-AVC] [Half Ov ...
  • [3D] Затаившиеся 3D / Hidden 3D (Антуан Томас, Ужасы, 2011) [BDRip - AVC, Д ...
  • [3D] Пила 7 3D / Saw 7 3D (Кевин Гротерт, Ужасы, 2010) [BDRip 1080p, Дубляж ...
  • [3D] Трон: Наследие 3D / TRON: Legacy 3D (Джозеф Косински, Фантастика, 2010 ...
  • [3D] Фантом 3D / The Darkest Hour 3D (Крис Горак, Фантастика, 2011) [BDRip ...
  • [3D] Как приручить дракона 3D / How to Train Your Dragon 3D (Дин ДеБлуа, Му ...
  • [3D] Полярный экспресс 3D / The Polar Express 3D (Роберт Земекис, Мультфиль ...
  • [3D] Путешествие к Центру Земли 3D / Journey to the Center of the Earth 3D ...
  • [3D] Пираньи / Piranha (Александр Ажа / Alexandre Aja, Триллер, Ужасы, 2010 ...
  • Пираньи 3D / Piranha 3D (Александр Ажа, ужасы, триллер, комедия, 2010) [DVD ...
  • Пираньи 2D / Piranha (Александр Ажа, ужасы, боевик, триллер, 2010) [DVDRip, ...
  • Пираньи / Piranha (Александр Ажа, ужасы, триллер, комедия, 2010) [HDRip, ду ...
  • Информация
    Посетители, находящиеся в группе Гости, не могут оставлять комментарии к данной публикации.