вход на сайт

Имя пользователя :
Пароль :

Восстановление пароля Регистрация
[3D] Призрачный гонщик 2 / Ghost Rider: Spirit of Vengeance (Марк Невелдайн, Брайан Тейлор, фэнтези, боевик, триллер, 2011) [BDrip, 1080p, Профессиональный (полное дублирование) + Оригинал] Anaglyph / Анаглиф
Рейтинг:
(голосов: 1)



[img]{THEME}/images/logopost.png[/img]



Призрачный гонщик 2 / Ghost Rider: Spirit of Vengeance

Год выпуска: 2011
Страна: США, ОАЭ
Производство: Columbia Pictures, Hyde Park Entertainment, Imagenation Abu Dhabi FZ, Marvel Knights
Жанр: Фэнтези, боевик, триллер

Режиссёр: Марк Невелдайн, Брайан Тейлор
В ролях: Николас Кейдж, Кьяран Хайндс, Виоланте Плачидо, Джонни Витуорт, Кристофер Ламберт, Идрис Эльба, Фергус Риордан, Спенсер Уидлинг, Сорин Тофан, Яцек Коман

Перевод: Дубляж + Оригинал
Субтитры: Отсутствуют
Описание:Действие разворачивается на задворках Восточной Европы, где главный герой Джонни Блэйз безуспешно пытается справиться со своим проклятием. Его принимает на работу некая секта, которая пытается заполучить дьявола в тот момент, когда он пытается вселиться в тело его смертного сына на дне рождения мальчика.

IMDB: 4.70 (20 963)
КиноПоиск: 5.194 (7 063)

Качество: BDRip
Продолжительность: 01:35:32 час.

Формат: MKV
Формат 3D: Anaglyph / Анаглиф
Порядок ракурсов: левый ракурс первый
Видео кодек: AVC
Аудио кодек: AC3, DTS
Видео: 1920х1080 (2.35:1), 23.976 fps, AVC ~8 126 kbps avg, 0.163 bit/pixel
Аудио#1: 48 kHz, AC3 Dolby Digital, 3/2 (L,C,R,l,r) + LFE ch, ~640 kbps (Rus DUB)
Аудио#2: 48 kHz, DTS, 3/2 (L,C,R,l,r) + LFE ch, ~1510 kbps (Original Eng)

Дата премьеры (мир): 11 декабря 2011
Дата премьеры (РФ): 23 февраля 2012, «Централ Партнершип»

MediaInfo ▼General
Unique ID : 193927613244172720569535787095374894588 (0x91E519887F956EF88EF3813E025315FC)
Complete name : J:Фильмы3ДGhost Rider Spirit of Vengeance.mkv
Format : Matroska
Format version : Version 2
File size : 7.50 GiB
Duration : 1h 35mn
Overall bit rate mode : Variable
Overall bit rate : 11.2 Mbps
Encoded date : UTC 2012-06-03 17:54:23
Writing application : mkvmerge v5.4.0 (Piper) built on Mar 10 2012 13:34:39
Writing library : libebml v1.2.3 + libmatroska v1.3.0
Video
ID : 1
Format : AVC
Format/Info : Advanced Video Codec
Format profile : [email protected]
Format settings, CABAC : Yes
Format settings, ReFrames : 4 frames
Muxing mode : Header stripping
Codec ID : V_MPEG4/ISO/AVC
Duration : 1h 35mn
Bit rate : 8 126 Kbps
Width : 1 920 pixels
Height : 1 080 pixels
Display aspect ratio : 16:9
Frame rate : 23.976 fps
Color space : YUV
Chroma subsampling : 4:2:0
Bit depth : 8 bits
Scan type : Progressive
Bits/(Pixel*Frame) : 0.163
Stream size : 5.42 GiB (72%)
Writing library : x264 core 125 r2200 999b753
Encoding settings : cabac=1 / ref=4 / deblock=1:-1:-1 / analyse=0x3:0x113 / me=hex / subme=7 / psy=1 / psy_rd=1.00:0.15 / mixed_ref=1 / me_range=16 / chroma_me=1 / trellis=2 / 8x8dct=1 / cqm=0 / deadzone=21,11 / fast_pskip=1 / chroma_qp_offset=-3 / threads=9 / lookahead_threads=1 / sliced_threads=0 / nr=0 / decimate=1 / interlaced=0 / bluray_compat=0 / constrained_intra=0 / bframes=6 / b_pyramid=2 / b_adapt=1 / b_bias=0 / direct=1 / weightb=1 / open_gop=0 / weightp=2 / keyint=250 / keyint_min=23 / scenecut=40 / intra_refresh=0 / rc_lookahead=60 / rc=crf / mbtree=1 / crf=18.0 / qcomp=0.60 / qpmin=0 / qpmax=69 / qpstep=4 / ip_ratio=1.40 / aq=1:1.00
Language : English
Default : Yes
Forced : No
Audio #1
ID : 2
Format : AC-3
Format/Info : Audio Coding 3
Mode extension : CM (complete main)
Muxing mode : Header stripping
Codec ID : A_AC3
Duration : 1h 35mn
Bit rate mode : Constant
Bit rate : 640 Kbps
Channel(s) : 6 channels
Channel positions : Front: L C R, Side: L R, LFE
Sampling rate : 48.0 KHz
Bit depth : 16 bits
Compression mode : Lossy
Stream size : 437 MiB (6%)
Language : Russian
Default : Yes
Forced : No
Audio #2
ID : 3
Format : DTS
Format/Info : Digital Theater Systems
Format profile : MA / Core
Muxing mode : Header stripping
Codec ID : A_DTS
Duration : 1h 35mn
Bit rate mode : Variable
Bit rate : 2 251 Kbps / 1 510 Kbps
Channel(s) : 6 channels
Channel positions : Front: L C R, Side: L R, LFE
Sampling rate : 48.0 KHz
Bit depth : 16 bits
Compression mode : Lossl
462f1fea5029dae49fcda08f3ca4186c9d9756b0[3D] Призрачный гонщик 2 / Ghost Rider: Spirit of Vengeance (Марк Невелдайн, Брайан Тейлор, фэнтези, боевик, триллер, 2011) [BDrip, 1080p, Профессиональный (полное дублирование) + Оригинал] Anaglyph / Анаглиф [3D] Призрачный гонщик 2 / Ghost Rider: Spirit of Vengeance (Марк Невелдайн, Брайан Тейлор, фэнтези, боевик, триллер, 2011) [BDrip, 1080p, Профессиональный (полное дублирование) + Оригинал] Anaglyph / Анаглиф " />

Аплоадер: Админ, дата: 9-06-2012, 19:17, торрент скачан: 359 раз

Понравилась раздача? Посмотрите эти:
  • Пастырь / Priest (Скотт Чарльз Стюарт, ужасы, фантастика, боевик, триллер, ...
  • Призрачный гонщик 2 / Ghost Rider: Spirit of Vengeance (Марк Невелдайн, Бра ...
  • Призрачный гонщик 2 / Ghost Rider: Spirit of Vengeance (Марк Невелдайн, Бра ...
  • [3D] Призраки дома Винчестеров в 3Д / Haunting of Winchester House in 3D (М ...
  • [3D] Другой мир: Пробуждение / Underworld: Awakening (Манс Марлинд , ужасы, ...
  • [3D] Призрачный гонщик 2 / Ghost Rider: Spirit of Vengeance (Марк Невелдайн ...
  • Другой мир: Пробуждение / Underworld: Awakening (Монс Морлинд, Бьёрн Стейн, ...
  • Призрачный гонщик 2 / Ghost Rider: Spirit of Vengeance (Марк Невелдайн, Бра ...
  • Призрачный гонщик 2 / Ghost Rider: Spirit of Vengeance (Марк Невелдайн, Бра ...
  • Призрачный гонщик 2 / Ghost Rider: Spirit of Vengeance (Марк Невелдайн, Бра ...
  • Призрачный гонщик 2 / Ghost Rider: Spirit of Vengeance (Марк Невелдайн / Ma ...
  • Призрачный гонщик 2 / Ghost Rider: Spirit of Vengeance (Марк Невелдайн, Бра ...
  • Призрачный гонщик 2 / Ghost Rider: Spirit of Vengeance (Марк Невелдайн, Бра ...
  • Призрачный гонщик 2 / Ghost Rider: Spirit of Vengeance (Марк Невелдайн, Бра ...
  • Призрачный гонщик 2 / Ghost Rider: Spirit of Vengeance (Марк Невелдайн, Бра ...
  • Призрачный гонщик 2 / Ghost Rider: Spirit of Vengeance (Марк Невелдайн, Бра ...
  • Призрачный гонщик 2 / Ghost Rider: Spirit of Vengeance (Марк Невелдайн, Бра ...
  • Призрачный гонщик 2 / Ghost Rider: Spirit of Vengeance (Марк Невелдайн, Бра ...
  • [3D] Призрачный гонщик 2 / Ghost Rider: Spirit of Vengeance (Марк Невелдайн ...
  • Призрачный гонщик 2 / Ghost Rider: Spirit of Vengeance (Марк Невелдайн, Бра ...
  • Информация
    Посетители, находящиеся в группе Гости, не могут оставлять комментарии к данной публикации.