вход на сайт

Имя пользователя :
Пароль :

Восстановление пароля Регистрация
[3D] Миссия Дарвина / G-Force 3D (Хойт Йетмен, мультфильм, фэнтези, боевик, комедия, приключения, семейный, 2009г) [BDRip, Дублированный + Дублированный (Укр) + Оригинал + Sub] [Half OverUnder / Вертикальная анаморфная стереопара]
Рейтинг:
(голосов: 1)



[img]{THEME}/images/logopost.png[/img]



Миссия Дарвина / G-Force 3D
«Пушистые и беспощадные»

Год выпуска: 2009
Страна: США
Производство: Walt Disney
Жанр: мультфильм, фэнтези, боевик, комедия, приключения, семейный

Режиссёр: Хойт Йетмен / Hoyt Yeatman
В ролях: Сэм Рокуэлл, Джон Фавро, Пенелопа Крус, Николас Кейдж, Трэйси Морган, Стив Бушеми, Билл Найи, Уилл Арнетт, Зак Галифианакис, Келли Гарне, Тайлер Патрик Джонс

Перевод: Дублированный + Дублированный | Укр + Оригинал | English
Субтитры: Русские форсированные, Русские полные

Описание: «Миссия Дарвина» — это суперкоманда морских свинок, работающих на правительство США. Для выполнения специальных заданий зверьков подготовил один ученый, и теперь они могут проникать в места, недоступные для людей, вооружившись самыми современными технологиями.

В спецподразделение входят: Дарвин — командир отряда, спец по коммуникациям; Хуарес — единственная девушка в команде, спец по боевым искусствам; Бластер — «мускулы» команды. Вместе им предстоит разрушить планы злого гения, мечтающего захватить власть над миром.Дата премьеры (мир): 19 июля 2009
Дата премьеры (РФ): 20 августа 2009, «BVSPR Disney»
Качество: BDRip
Продолжительность: 01:28:15 час.

Формат: MKV
Формат 3D: Half OverUnder / Вертикальная анаморфная стереопара
Порядок ракурсов: левый ракурс первый
Видео кодек: AVC
Аудио кодек: AC3
Видео: 1920х1080 (16:9), 23.976 fps fps, AVC (H.264) ~9 065 Kbps, 0.182 bit/pixel
Аудио: 48 kHz, AC3, 6 ch, ~640.00 kbps avg rus | DUB
Аудио: 48 kHz, AC3, 6 ch, ~640.00 kbps avg rus | DUB
Аудио: 48 kHz, AC3, 6 ch, ~640.00 kbps avg rus | ENG
MediaInfo ▼General
UniqueID : 221262294891280302919099840607859120647 (0xA6759163D3D1E30CB450C2D096561A07)
Complete name : F:DownloadsG-Force-3D.2009.halfOU.AC3-ash61G-Force-3D.2009.halfOU.AC3-ash61.mkv
Format : Matroska
File size : 6.91 GiB
Duration : 1h 28mn
Overall bit rate : 11.2 Mbps
Movie name : G-Force 3D (ash61)
Encoded date : UTC 2011-11-05 13:47:32
Writing application : mkvmerge v3.4.0 (Rapunzel) сборка от May 15 2010 09:38:20
Writing library : libebml v0.8.0 + libmatroska v0.9.0
Video
ID : 1
Format : AVC
Format/Info : Advanced Video Codec
Format profile : [email protected]
Format settings, CABAC : Yes
Format settings, ReFrames : 4 frames
Format settings, GOP : M=1, N=16
Codec ID : V_MPEG4/ISO/AVC
Duration : 1h 28mn
Bit rate : 9 065 Kbps
Width : 1 920 pixels
Height : 1 080 pixels
Display aspect ratio : 16:9
Frame rate : 23.976 fps
Color space : YUV
Chroma subsampling : 4:2:0
Bit depth : 8 bits
Scan type : Progressive
Bits/(Pixel*Frame) : 0.182
Stream size : 5.59 GiB (81%)
Title : Rip by Ash61
Writing library : x264 core 113 r1884 7313bb5
Encoding settings : cabac=1 / ref=4 / deblock=1:-3:-3 / analyse=0x3:0x113 / me=umh / subme=9 / psy=1 / psy_rd=1.00:0.15 / mixed_ref=1 / me_range=16 / chroma_me=1 / trellis=2 / 8x8dct=1 / cqm=0 / deadzone=21,11 / fast_pskip=1 / chroma_qp_offset=-3 / threads=3 / sliced_threads=0 / nr=0 / decimate=1 / interlaced=0 / constrained_intra=0 / bframes=6 / b_pyramid=2 / b_adapt=2 / b_bias=0 / direct=3 / weightb=1 / open_gop=0 / weightp=2 / keyint=250 / keyint_min=23 / scenecut=40 / intra_refresh=0 / rc_lookahead=60 / rc=crf / mbtree=1 / crf=18.0 / qcomp=0.70 / qpmin=0 / qpmax=69 / qpstep=4 / ip_ratio=1.40 / aq=1:1.00
Audio #1
ID : 2
Format : AC-3
Format/Info : Audio Coding 3
Mode extension : CM (complete main)
Codec ID : A_AC3
Duration : 1h 28mn
Bit rate mode : Constant
Bit rate : 640 Kbps
Channel(s) : 6 channels
Channel positions : Front: L C R, Side: L R, LFE
Sampling rate : 48.0 KHz
Bit depth : 16 bits
Compression mode : Lossy
Stream size : 404 MiB (6%)
Title : Дубляж
Language : Russian
Audio #2
ID : 3
Format : AC-3
Format/Info : Audio Coding 3
Mode extension : CM (complete main)
Codec ID : A_AC3
Duration : 1h 28mn
Bit rate mode : Constant
Bit rate : 640 Kbps
Channel(s) : 6 channels
Channel positions : Front: L C R, Side: L R, LFE
Sampling rat
41c7c816db52bcd2232a7404753b984d794e5d48[3D] Миссия Дарвина / G-Force 3D (Хойт Йетмен, мультфильм, фэнтези, боевик, комедия, приключения, семейный, 2009г) [BDRip, Дублированный + Дублированный (Укр) + Оригинал + Sub] [Half OverUnder / Вертикальная анаморфная стереопара] [3D] Миссия Дарвина / G-Force 3D (Хойт Йетмен, мультфильм, фэнтези, боевик, комедия, приключения, семейный, 2009г) [BDRip, Дублированный + Дублированный (Укр) + Оригинал + Sub] [Half OverUnder / Вертикальная анаморфная стереопара] " />

Аплоадер: Админ, дата: 4-06-2012, 10:39, торрент скачан: 359 раз

Понравилась раздача? Посмотрите эти:
  • [3D] Миссия Дарвина G-Force 3D (Хойт Йетмен, мультфильм, фэнтези, боевик, ...
  • Миссия Дарвина / G-Force (Хойт Йетмен,фэнтези, боевик, приключения, семейны ...
  • Миссия Дарвина / G-Force (Хойт Йетмен, Боевик, мультфильм, фэнтези, боевик, ...
  • [3D] Миссия Дарвина / G-Force 3D (Хойт Йетмен, комедия, фэнтези, приключени ...
  • [3D] Пункт назначения 4 3Д / The Final Destination 3D (Дэвид Р. Эллис / Dav ...
  • [3D]Конан-варвар в 3Д / Conan the Barbarian 3D (Маркус Ниспел / Marcus Nisp ...
  • [3D] Тайна красной планеты / Mars Needs Moms (Саймон Уэллс, мультфильм, фан ...
  • [3D] Крылатые монстры 3Д / Flying Monsters 3D (Мэттью Диас, Документальны ...
  • [3D] Бугай / Boogie El Aceitoso (Густаво Кова, мультфильм, боевик, криминал ...
  • [3D] Кот в сапогах / Puss in Boots (Крис Миллер / Chris Miller, Мультфильм, ...
  • [3D] Смешарики. Начало (Денис Чернов, Мультфильм, 2011) [BDrip, Дублированн ...
  • [3D] Приключения Тинтина: Тайна Единорога / The Adventures of Tintin (Стиве ...
  • [3D] Делай ноги 2 / Happy Feet Two (Джордж Миллер / George Miller, Мультфил ...
  • [3D] Кот и цыплёнок / I Tawt I Taw а Puddy Tat (Мэттью ОКаллаган / Matthew ...
  • [3D] Мультачки: Байки Мэтра. Аэро-Мэтр / Maters Tall Tales: Air Mater (Роб ...
  • [3D] Другой мир: Пробуждение / Underworld: Awakening (Монс Морлинд, Бьёрн С ...
  • [3D] Глаз ребенка / Childs Eye (Оксид Пан, ужасы, 2010) [BDRip, Дублированн ...
  • [3D] Мой кровавый Валентин / My Bloody Valentine (Патрик Люссье, ужасы, три ...
  • [3D] Призрачный гонщик 2 / Ghost Rider: Spirit of Vengeance (Марк Невелдайн ...
  • [3D] От винта 3D (Ольга Лопато, Мультфильм, комедия, приключения, 2012) [BD ...
  • [3D] Кукарача 3D (Армен Адилханян, Мультфильм, Комедия, 2011) [BDRip-AVC, Н ...
  • [3D] Кошмар перед Рождеством 3D / The Nightmare Before Christmas 3D (Генри ...
  • Миссия Дарвина / G-Force (Хойт Йетмен, Боевик, фэнтези, приключения, семейн ...
  • Миссия Дарвина / G Force (Хойт Йетмен, Боевик, фэнтези, приключения, комеди ...
  • Миссия Дарвина / G-Force (Хойт Йетмен,фэнтези, боевик, приключения, семейны ...
  • Информация
    Посетители, находящиеся в группе Гости, не могут оставлять комментарии к данной публикации.