вход на сайт

Имя пользователя :
Пароль :

Восстановление пароля Регистрация
[3D] Война Богов: Бессмертные 3D / Immortals 3D (Тарсем Синх, Фэнтези, 2011) [BDRip, Дублированный + Оригинал] [Анаглиф red-cyan (RAV-Anaglyph)]
Рейтинг:
(голосов: 1)



[img]{THEME}/images/logopost.png[/img]



Война Богов: Бессмертные / Immortals
«Богам нужен герой»

Год выпуска: 2011
Страна: США
Производство: Hollywood Gang Productions, Mark Canton Productions, Relativity Media
Жанр: боевик, триллер, драма, военный

Режиссёр: Тарсем Синх / Tarsem Singh
В ролях: Генри Кавилл, Стивен Дорфф, Люк Эванс, Изабель Лукас, Келлан Латс, Фрида Пинто, Микки Рурк, Джон Хёрт, Джозеф Морган, Энн Дэй-Джонс, Стив Байерс

Перевод: Дублированный + Оригинал
Субтитры: Отсутствуют

Описание: Одержимый жаждой власти царь Гиперион хочет уничтожить род людской и низвергнуть богов. С помощью Эпирского Лука, сделанного руками бога войны Ареса, он освобождает Титанов от тысячелетнего заточения в горах Тартара. Боги бессильны противостоять безумному царю. Единственная надежда на спасение — герой Тесей, который вступает в неравную войну с Титанами. Боги Олимпа во главе с самим Зевсом, пророчица Федра и хитрый раб Ставрос помогают герою в смертельной битве с демонами. Тесей должен победить, или боги Олимпа будут низвержены, а Эллада обречена на погибель…



Качество: BDRip
Продолжительность: 01:50:27

Формат: MKV
Формат 3D: Анаглиф red-cyan (RAV-Anaglyph)
Порядок ракурсов: левый ракурс первый
Видео кодек: AVC
Аудио кодек: AC3
Видео: 2560x720 (1..854), 23.976 fps, AVC ~4 852 kbps avg, 0.110 bit/pixel
Аудио: 48.0 KHz, AC3, 3/2 (L,C,R,l,r) + LFE ch, ~640 kbps
Аудио: 48.0 KHz, AC3, 3/2 (L,C,R,l,r) + LFE ch, ~640 kbps

Дата премьеры (мир): 10 ноября 2011
Дата премьеры (РФ): 10 ноября 2011, «Парадиз», «Наше Кино»

MediaInfo ▼General
Format : Matroska
Format version : Version 2
File size : 44.0 MiB
Duration : 59s 26ms
Overall bit rate : 6 257 Kbps
Encoded date : UTC 2012-03-30 17:37:55
Writing application : mkvmerge v4.4.0 (Die Wiederkehr) сборка от Oct 31 2010 21:52:48
Writing library : libebml v1.0.0 + libmatroska v1.0.0
Video
ID : 1
Format : AVC
Format/Info : Advanced Video Codec
Format profile : [email protected]
Format settings, CABAC : Yes
Format settings, ReFrames : 4 frames
Codec ID : V_MPEG4/ISO/AVC
Duration : 59s 17ms
Bit rate : 4 852 Kbps
Width : 2 560 pixels
Height : 720 pixels
Display aspect ratio : 3.556
Frame rate : 23.976 fps
Color space : YUV
Chroma subsampling : 4:2:0
Bit depth : 8 bits
Scan type : Progressive
Bits/(Pixel*Frame) : 0.110
Stream size : 34.1 MiB (78%)
Title : RAV-Anaglyph by Boss-Master
Default : Yes
Forced : No
Audio #1
ID : 2
Format : AC-3
Format/Info : Audio Coding 3
Mode extension : CM (complete main)
Codec ID : A_AC3
Duration : 59s 26ms
Bit rate mode : Constant
Bit rate : 640 Kbps
Channel(s) : 6 channels
Channel positions : Front: L C R, Side: L R, LFE
Sampling rate : 48.0 KHz
Bit depth : 16 bits
Compression mode : Lossy
Delay relative to video : 18ms
Stream size : 4.50 MiB (10%)
Language : Russian
Default : Yes
Forced : No
Audio #2
ID : 3
Format : AC-3
Format/Info : Audio Coding 3
Mode extension : CM (complete main)
Codec ID : A_AC3
Duration : 59s 26ms
Bit rate mode : Constant
Bit rate : 640 Kbps
Channel(s) : 6 channels
Channel positions : Front: L C R, Side: L R, LFE
Sampling rate : 48.0 KHz
Bit depth : 16 bits
Compression mode : Lossy
Delay relative to video : 18ms
Stream size : 4.50 MiB (10%)
Language : English
Default : No
Forced : No


599b2b0f2cb4c3f46b7dd1640a4312f3c74e2534[3D] Война Богов: Бессмертные 3D / Immortals 3D (Тарсем Синх, Фэнтези, 2011) [BDRip, Дублированный + Оригинал] [Анаглиф red-cyan (RAV-Anaglyph)] [3D] Война Богов: Бессмертные 3D / Immortals 3D (Тарсем Синх, Фэнтези, 2011) [BDRip, Дублированный + Оригинал] [Анаглиф red-cyan (RAV-Anaglyph)] " />

Аплоадер: Админ, дата: 4-06-2012, 10:23, торрент скачан: 359 раз

Понравилась раздача? Посмотрите эти:
  • Война Богов: Бессмертные / Immortals (Тарсем Синх, фэнтези, боевик, драма, ...
  • Война Богов: Бессмертные / Immortals (Тарсем Синх / Tarsem Singh, фэнтези, ...
  • Война Богов: Бессмертные / Immortals (Тарсем Синх / Tarsem Singh, фэнтези, ...
  • Война Богов: Бессмертные / Immortals (Тарсем Синх, фэнтези, боевик, драма, ...
  • [3D] Грибы 3D / One Way Trip (Маркус Вельтер / Markus Welter, Ужасы, Трилле ...
  • [3D] Призраки дома Винчестеров в 3Д / Haunting of Winchester House in 3D (М ...
  • [3D] Война Богов: Бессмертные 3D / Immortals 3D (Тарсем Синх, Фэнтези, 2011 ...
  • [3D] Другой мир: Пробуждение / Underworld: Awakening (Манс Марлинд , ужасы, ...
  • [3D] Ржевский против Наполеона 3D (Марюс Вайсберг, Комедия, 2012) [BDRip, Н ...
  • [3D] Призрачный гонщик 2 / Ghost Rider: Spirit of Vengeance (Марк Невелдайн ...
  • [3D] Тарбозавр 3D / Jeombaki: Hanbandoeui Gongryong 3D (Сань-хо Хань, Мульт ...
  • Война Богов: Бессмертные / Immortals (Тарсем Синх, Фэнтези, 2011) [BDRip 72 ...
  • Война Богов: Бессмертные / Immortals (Тарсем Синх, фэнтези, боевик, драма, ...
  • Война Богов: Бессмертные / Immortals (Тарсем Синх, фэнтези, боевик, драма, ...
  • Война Богов: Бессмертные / Immortals (Тарсем Синх, фэнтези, боевик, драма, ...
  • [iPhone]Война Богов: Бессмертные / Immortals (Тарсем Синх, фэнтези, боевик, ...
  • Война Богов: Бессмертные / Immortals (Тарсем Синх, фэнтези, боевик, драма, ...
  • Война Богов: Бессмертные / Immortals (Тарсем Синх, Фэнтези, 2011) [BDRip, Д ...
  • Война Богов: Бессмертные / Immortals (Тарсем Синх, Боевик, фэнтези, боевик, ...
  • Война Богов: Бессмертные / Immortals (Тарсем Синх / Tarsem Singh, фэнтези, ...
  • [iPhone, iPod, iPad]Война Богов: Бессмертные / Immortals (Тарсем Синх / Tar ...
  • [3D] Война Богов: Бессмертные / Immortals (Тарсем Синх / Tarsem Sinh, фэнте ...
  • [3D] Война Богов: Бессмертные 3Д+2Д / Immortals 3D+2D (Тарсем Синх, фэнтези ...
  • Война Богов: Бессмертные / Immortals (Тарсем Синх, фэнтези, боевик, драма, ...
  • Белоснежка: Месть гномов / Mirror Mirror (Тарсем Синх, фэнтези, драма, коме ...
  • Информация
    Посетители, находящиеся в группе Гости, не могут оставлять комментарии к данной публикации.