вход на сайт

Имя пользователя :
Пароль :

Восстановление пароля Регистрация
[3D] Союз зверей / Konferenz der Tiere / Animals United (Райнхард Клоосс, Хольгер Таппе / Reinhard Klooss, Holger Tappe, мультфильм, комедия, приключения, семейный, 2010) [BDrip, Профессиональный (дублированный)] [Half OverUnder / Вертикальная анамор
Рейтинг:
(голосов: 1)



[img]{THEME}/images/logopost.png[/img]



Союз зверей / Die Konferenz der Tiere / Animals United

Год выпуска: 2010
Страна: Германия
Производство: Constantin Film Produktion
Жанр: Мультфильм, комедия, приключения, семейный

Режиссёр: Райнхард Клоосс, Хольгер Таппе / Reinhard Klooss, Holger Tappe
В ролях: Ральф Шмитц, Томас Фритш, Кристоф Мария Хербст, Бастиан Пастевка, Оливер Калкофе, Billy Beach, Джим Броудбент, Джеймс Корден, Marc Diraison, Омид Джалили

Перевод: Профессиональный (дублированный)
Озвучка:Вадим Галыгин, Илья Любимов, Тимур Родригез, Иван Жарков, Любовь Германова
Субтитры: нет

Описание: Команда веселых зверей нашла зеленый оазис посреди засушливой африканской пустыни, чтобы там поселиться. Но их жизнь оказалась под угрозой - река Окаванго стала быстро пересыхать. Друзья выясняют, что в этом виноваты люди, которые построили дамбу. Звери, - такие разные, - от льва до трусливого суслика, - объединяются в союз, чтобы бросить вызов людям и спасти долину! Смешная ватага разношерстных, винторогих и парнокопытных устроит развеселую жизнь людям и наведет свой «порядок» на дамбе!

IMDB: 4.70 (2 072)
КиноПоиск: 5.427 (2 977)

Доп. информация: Проверено на встроенном плейере ТВ Samsung D7000

Качество: BDRip
Продолжительность: 01:33:13 час.
Формат : MKV
Формат 3D:Half OverUnder / Вертикальная анаморфная стереопара
Порядок ракурсов: Левый ракурс первый

Видео кодек: H264
Аудио кодек: DTS, AC3
Видео: MPEG4 Video (H264) 1920x1080p 23.98fps 5753 Kbps
Аудио 1: Русский: AC3 5.1 ср 48 kHz 448kbps
Аудио 2: Русский: DTS 48000Hz 5.1ch 1510kbps

MediaInfo ▼Общее
Уникальный идентификатор : 176355370259624542911026048201546441714 (0x84ACCF1060A43A898928543733D2A3F2)
Полное имя : H:3D фильмыМультфильмыСоюз зверей.mkv
Формат : Matroska
Версия формата : Version 2
Размер файла : 16,0 Гбайт
Продолжительность : 1 ч. 33 м.
Режим общего битрейта : Переменный
Общий поток : 24,6 Мбит/сек
Название фильма : 3DRip-Present
Дата кодирования : UTC 2012-05-16 16:16:56
Программа кодирования : mkvmerge v3.4.0 (Rapunzel) сборка от May 15 2010 09:38:20
Библиотека кодирования : libebml v0.8.0 + libmatroska v0.9.0

Видео
Идентификатор : 1
Формат : AVC
Формат/Информация : Advanced Video Codec
Профиль формата : [email protected]
Параметр CABAC формата : Да
Параметр ReFrames формата : 2 кадра
Идентификатор кодека : V_MPEG4/ISO/AVC
Продолжительность : 1 ч. 33 м.
Битрейт : 18,4 Мбит/сек
Ширина : 1920 пикселей
Высота : 1080 пикселей
Соотношение сторон : 16:9
Частота кадров : 23,976 кадра/сек
Цветовое пространство : YUV
Субдискретизация насыщенности : 4:2:0
Битовая глубина : 8 бит
Тип развёртки : Прогрессивная
Бит/(Пиксели*Кадры) : 0.370
Размер потока : 11,9 Гбайт (75%)
Заголовок : 3DRip_By_Kinozal.tv
Библиотека кодирования : x264 core
Default : Да
Forced : Нет
Основные цвета : BT.709-5, BT.1361, IEC 61966-2-4, SMPTE RP177
Характеристики трансфера : BT.709-5, BT.1361
Коэффициенты матрицы : BT.709-5, BT.1361, IEC 61966-2-4 709, SMPTE RP177

Аудио #1
Идентификатор : 2
Формат : AC-3
Формат/Информация : Audio Coding 3
Расширение режима : CM (complete main)
Параметр Endianness формата : Big
Идентификатор кодека : A_AC3
Продолжительность : 1 ч. 33 м.
Вид битрейта : Постоянный
Битрейт : 640 Кбит/сек
Каналы : 6 каналов
Расположение каналов : Front: L C R, Side: L R, LFE
Частота : 48,0 КГц
Битовая глубина : 16 бит
Метод сжатия : С потерями
Размер потока : 426 Мбайт (3%)
Заголовок : 3DRip_By_Kinozal.tv
Язык : Russian
Default : Нет
Forced : Нет

Аудио #2
Идентификатор : 3
Формат : DTS
Формат/Информация : Digital Theater Systems
Идентификатор кодека : A_DTS
Продолжительность : 1 ч. 33 м.
Вид битрейта : Постоянный
Битрейт : 1510 Кбит/сек
Каналы : 6 каналов
Расположение каналов : Front: L C R, Side: L R, LFE
Частота : 48,0 КГц
Битовая глубина : 24 бит
fb517b22188464e49df11b94bf2142e71282be8c[3D] Союз зверей / Konferenz der Tiere / Animals United (Райнхард Клоосс, Хольгер Таппе / Reinhard Klooss, Holger Tappe, мультфильм, комедия, приключения, семейный, 2010) [BDrip, Профессиональный (дублированный)] [Half OverUnder / Вертикальная анамор [3D] Союз зверей / Konferenz der Tiere / Animals United (Райнхард Клоосс, Хольгер Таппе / Reinhard Klooss, Holger Tappe, мультфильм, комедия, приключения, семейный, 2010) [BDrip, Профессиональный (дублированный)] [Half OverUnder / Вертикальная анамор " />

Аплоадер: Админ, дата: 25-05-2012, 22:05, торрент скачан: 359 раз

Понравилась раздача? Посмотрите эти:
  • Копы в юбках / The Heat [UNRATED] (Пол Фиг, комедия, криминал, боевик, дете ...
  • Больше чем мёд / More Than Honey (документальный, 2012) [BDRemux 1080p, Про ...
  • Лего: Звёздные войны - Награда бомбада / LEGO: Star wars - Вombad Bounty (П ...
  • [3D] Мадагаскар 3 / Madagascar 3: Europes Most Wanted (Эрик Дарнелл, Том Ма ...
  • Эскадрилья "Лафайет" / Flyboys (Тони Билл, Боевик, драма, мелодрама, приклю ...
  • [3D] Президент Линкольн: Охотник на вампиров / Abraham Lincoln: Vampire Hun ...
  • [3D] Мартышки в космосе: Ответный удар / Space Chimps 2: Zartog Strikes Bac ...
  • Импи - суперстар! / Urmel voll in Fahrt (Райнхард Клоосс, Хольгер Таппе, ко ...
  • Союз зверей / Die Konferenz der Tiere (Райнхард Клоосс, Хольгер Таппе, муль ...
  • [3D] The Black Eyed Peas / I Gotta Feeling (Pop, 2010) [BDRip-AVC] [Half Ov ...
  • [3D] Цирк! Цирк! Цирк! 3D/ Orla Frosnapper 3D (Питер Додд) [2011 г., мультф ...
  • [3D] Дельфины и киты 3D / Dolphins and Whales: Tribes of the Ocean 3D (Жан- ...
  • [3D] Мумии: Секреты фараонов / IMAX - Mummies: Secrets of the Pharaohs (Кей ...
  • [3D] Секретная служба Санта-Клауса / Arthur Christmas (Сара Смит, Бэрри Кук ...
  • [3D] Тарзан 3D трейлер / Tarzan 3D trailer (Райнхард Клоосс / Reinhard Kloo ...
  • Союз зверей / Die Konferenz der Tiere (Райнхард Клоосс, Хольгер Таппе , мул ...
  • Хищники / Predators (Нимрод Антал, Фантастика, Боевик, Триллер, Приключения ...
  • Скрат: Потерянный орех / Scrat: Gone Nutty (Carlos Saldanha, мультфильм, к ...
  • Скарат: Не время для орехов / Scrat: No Time For Nuts (Крис Рено, Майк Тёр ...
  • Сид, инструкция по выживанию / Surviving Sid (Гален Т. Чу, Карен Дишер, мул ...
  • Чего ждать, когда ждешь ребенка / What to Expect When Youre Expecting (Кирк ...
  • Супер Майк / Magic Mike (Стивен Содерберг, Драма, комедия, 2012) [BD-Remux ...
  • Эволюция Борна / The Bourne Legacy (Тони Гилрой, боевик, триллер, детектив, ...
  • Союз зверей / Die Konferenz der Tiere (Райнхард Клоосс, Хольгер Таппе, Муль ...
  • Союз зверей / Animals United / Konferenz der Tiere (Райнхард Клоосс, Хольге ...
  • Информация
    Посетители, находящиеся в группе Гости, не могут оставлять комментарии к данной публикации.