вход на сайт

Имя пользователя :
Пароль :

Восстановление пароля Регистрация
[3D] Другой мир: Пробуждение / Underworld: Awakening (Манс Марлинд , Ужасы, фэнтези, 2012) [BDRip, дублированный+original+Sub] [Half SideBySide]
Рейтинг:
(голосов: 1)



[img]{THEME}/images/logopost.png[/img]



Другой мир: Пробуждение 3D / Underworld: Awakening in 3D

Год выпуска: 2012
Страна: США
Производство:

Жанр:Ужасы, фэнтези, боевик

Режиссёр:Манс Марлинд

В ролях: Кейт Бекинсейл, Майкл Или, Чарльз Дэнс, Индия Айли, Стивен Ри, Кристен Холден-Рид, Сандрин Холт, Ричард Цетрон, Тео Джеймс, Роберт Лоуренсон

Перевод: Профессиональный (дублированный)

Чаптеры:Есть
Субтитры:Скачать
#1: Русские полные
#2: Русские комментарии создателей
#3: Английские форсированные (на русскую речь)
#4: Английские полные
#5: Английские комментарии создателей

Описание: Через 12 лет в состоянии, близком к коматозному, Селин узнает о существовании родной дочери Евы - гибрида вампира и ликана. И Селин необходимо помешать БиоКом создать суперликанов, которые убьют их всех.



проверено наLGBD650k:.:LG42LW575

Качество: BDRip
Продолжительность: 01:28:34 час.
Формат / Контейнер: MKV
Формат 3D: Half SideBySide / Горизонтальная анаморфная стереопара
Порядок ракурсов: левый ракурс первый

Видео кодек:H.264
Аудио кодек:AС3+DTS
Видео: AVC / 1920х1080p / 23,976 fps / 19.5 Мбит/с / 16:9
Аудио: Русский / AC3 / 48 KHz / 5.1 ch / 640 Kbps(Дубляж)
Аудио: Английский DTS-HD MA 5.1 / 1510 Kbps|Original|
Аудио: Английский / 48 kHz, АС3, 2/0 (L,R) ch, ~192.00 kbps avg |Commentary with the Filmmakers|
MediaInfo ▼
General
Unique ID : 210002669732978773375519222684973467210 (0x9DFD0B024F688BE79EB07E410FC7064A)
Complete name : D: Underworld: Awakening.3D.2012.BDRip.mkv
Format : Matroska
Format version : Version 2
File size : 14.2 GiB
Duration : 1h 28mn
Overall bit rate mode : Variable
Overall bit rate : 23.0 Mbps
Movie name : UNDERWORLD_AWAKENING_3D.Title1.Bluray3DRip
Encoded date : UTC 2012-04-18 14:43:18
Writing application : mkvmerge v3.4.0 (Rapunzel) ñáîðêà îò May 15 2010 09:38:20
Writing library : libebml v0.8.0 + libmatroska v0.9.0
Video #1
ID : 1
Format : AVC
Format/Info : Advanced Video Codec
Format profile : [email protected]
Format settings, CABAC : Yes
Format settings, ReFrames : 2 frames
Codec ID : V_MPEG4/ISO/AVC
Duration : 1h 28mn
Bit rate : 19.5 Mbps
Width : 1 920 pixels
Height : 1 080 pixels
Display aspect ratio : 16:9
Frame rate : 23.976 fps
Color space : YUV
Chroma subsampling : 4:2:0
Bit depth : 8 bits
Scan type : Progressive
Bits/(Pixel*Frame) : 0.393
Stream size : 12.1 GiB (85%)
Writing library : x264 core
Default : Yes
Forced : No
Color primaries : BT.709-5, BT.1361, IEC 61966-2-4, SMPTE RP177
Transfer characteristics : BT.709-5, BT.1361
Matrix coefficients : BT.709-5, BT.1361, IEC 61966-2-4 709, SMPTE RP177
Audio #2
ID : 2
Format : AC-3
Format/Info : Audio Coding 3
Mode extension : CM (complete main)
Codec ID : A_AC3
Duration : 1h 28mn
Bit rate mode : Constant
Bit rate : 640 Kbps
Channel(s) : 6 channels
Channel positions : Front: L C R, Side: L R, LFE
Sampling rate : 48.0 KHz
Bit depth : 16 bits
Compression mode : Lossy
Stream size : 405 MiB (3%)
Language : Russian
Default : Yes
Forced : No
Audio #3
ID : 3
Format : DTS
Format/Info : Digital Theater Systems
Format profile : MA / Core
Codec ID : A_DTS
Duration : 1h 28mn
Bit rate mode : Variable
Bit rate : 1 561 Kbps / 1 510 Kbps
Channel(s) : 6 channels
Channel positions : Front: L C R, Side: L R, LFE
Sampling rate : 48.0 KHz
Bit depth : 16 bits
Compression mode : Lossless / Lossy
Language : English
Default : No
Forced : No
ID : 4
Format : AC-3
Format/Info : Audio Coding 3
Format profile : Dolby Digital
Mode extension : CM (complete main)
Codec ID : A_AC3
Duration : 1h 28mn
Bit rate mode : Constant
Bit rate : 192 Kbps
Channel(s) : 2 channels
Channel positions : Front: L R
Sampling rate : 48.0 KHz
Bit depth : 16 bits
Compression mode : Lossy
Stream size : 122 MiB (1%)
Language : English
Default : No
Forced : No



d3d0f082f4a6f57f3d3238f3c05a434819257979[3D] Другой мир: Пробуждение / Underworld: Awakening (Манс Марлинд , Ужасы, фэнтези, 2012) [BDRip, дублированный+original+Sub] [Half SideBySide] [3D] Другой мир: Пробуждение / Underworld: Awakening (Манс Марлинд , Ужасы, фэнтези, 2012) [BDRip, дублированный+original+Sub] [Half SideBySide] " />

Аплоадер: Админ, дата: 19-04-2012, 14:02, торрент скачан: 359 раз

Понравилась раздача? Посмотрите эти:
  • [3D] Обитель Зла: Проклятие / Biohazard: Damnation (Макото Камия, мультфиль ...
  • Другой мир: Пробуждение / Underworld: Awakening (Монс Морлинд, Бьёрн Стейн, ...
  • Другой мир: Пробуждение / Underworld: Awakening (Монс Морлинд, Бьёрн Стейн, ...
  • Другой мир: Пробуждение / Underworld: Awakening (Монс Морлинд, Бьёрн Стейн, ...
  • Другой мир: Пробуждение / Underworld: Awakening (Монс Морлинд, Бьёрн Стейн, ...
  • [3D] Гарри Поттер и Дары Смерти: часть 2 / Harry Potter and the Deathly Hal ...
  • [3D] Другой мир: Пробуждение / Underworld: Awakening (Манс Марлинд , ужасы, ...
  • [3D] Другой мир: Пробуждение / Underworld: Awakening (Монс Морлинд, Бьёрн С ...
  • [3D] Глаз ребенка / Childs Eye (Оксид Пан, ужасы, 2010) [BDRip, Дублированн ...
  • [3D] Зов предков / Call of the Wild (Ричард Габай, драма, приключения, семе ...
  • [3D] Непристойное кино 3Д / Sex Pot 3D ( Эрик Форсберг / Eric Forsberg, Ко ...
  • Другой мир: Пробуждение / Underworld: Awakening (Монс Морлинд, Бьёрн Стейн, ...
  • Другой мир: Пробуждение / Underworld: Awakening (Манс Марлинд, Бьёрн Стейн, ...
  • Другой мир: Пробуждение / Underworld: Awakening (Монс Морлинд, Бьёрн Стейн, ...
  • Другой мир: Пробуждение / Underworld: Awakening (Монс Морлинд, Бьёрн Стейн, ...
  • Другой мир: Пробуждение / Underworld: Awakening (Манс Марлинд, Бьёрн Стейн, ...
  • Другой мир: Пробуждение / Underworld: Awakening (Монс Морлинд / Mans Marlin ...
  • Другой мир: Пробуждение / Underworld: Awakening (Монс Морлинд / Mans Marlin ...
  • [3D] Тёмный мир (Антон Мегердичев, Фэнтези, триллер, 2010) [BD Rip 1080p, О ...
  • Другой мир: Пробуждение / Underworld: Awakening (Монс Морлинд, Бьёрн Стейн, ...
  • Другой мир: Пробуждение / Underworld: Awakening (Манс Марлинд, Бьёрн Стейн, ...
  • [3D] Другой мир: Пробуждение / Underworld: Awakening (Монс Морлинд, Бьёрн С ...
  • [3D] Hannah Montana & Miley Cyrus: Best of Both Worlds Concert Tour 3D (Брю ...
  • Другой мир: Пробуждение / Underworld: Awakening (Манс Марлинд, Бьёрн Стейн, ...
  • Другой мир: Пробуждение / Underworld: Awakening (Монс Морлинд, Бьёрн Стейн, ...
  • Информация
    Посетители, находящиеся в группе Гости, не могут оставлять комментарии к данной публикации.