вход на сайт

Имя пользователя :
Пароль :

Восстановление пароля Регистрация
[3D] Ржевский против Наполеона (Марюс Вайсберг, комедия, 2012) [BDRip1080p, оригинал] [Half OverUnder / Вертикальная анаморфная стереопара]
Рейтинг:
(голосов: 1)



[img]{THEME}/images/logopost.png[/img]



Ржевский против Наполеона

Год выпуска: 2012
Страна: Россия, Украина
Производство: Квартал 95
Жанр: комедия
Режиссёр: Марюс Вайсберг
В ролях: Павел Деревянко, Владимир Зеленский, Светлана Ходченкова, Михаил Ефремов, Марат Башаров, Евгений Кошевой, Жан-Клод Ван Дамм, Анна Семенович, Анфиса Чехова, Михаил Галустян

Перевод: Не требуется
Субтитры:нет

Описание: Чтобы развеять скуку, Наполеон Бонапарт затеял мировую войну. Не пропуская ни одной юбки, он оказывается со своей армией у ворот Первопрестольной. Русские полководцы решают внедрить к нему неприступную красавицу, la femme fatal, чтобы отвлечь узурпатора от захватнической деятельности. Только какая настоящая женщина устоит перед обаянием этого великого бабника? Ненастоящая!!! В смысле - переодетый мужчина! И такой мужчина есть - поручик Ржевский...



Качество: BDRip
Продолжительность: 01:23:08 час.
Формат / Контейнер: MKV
Формат 3D: Half OverUnder / Вертикальная анаморфная стереопара
Порядок ракурсов: левый ракурс первый

Видео кодек: MPEG4
Аудио кодек:AС3
Видео: AVC / 1920х1080p / 23,976 fps/ 16:9/ 7 301 Kbps
Аудио: Русский / AC3 / 48 KHz / 5.1 ch / 512 Kbps

MediaInfo ▼General
Complete name : D:скачка orrentRjevski vs.NAPOLEON_3D.mkv
Format : Matroska
File size : 4.63 GiB
Duration : 1h 23mn
Overall bit rate : 7 971 Kbps
Movie name : Rjevski vs.NAPOLEON_3D
Encoded date : UTC 2012-04-01 04:10:08
Writing application : mkvmerge v4.2.0 (No Talking) сборка от Jul 28 2010 18:38:23
Writing library : libebml v1.0.0 + libmatroska v1.0.0
Video
ID : 1
Format : AVC
Format/Info : Advanced Video Codec
Format profile : [email protected]
Format settings, CABAC : Yes
Format settings, ReFrames : 2 frames
Muxing mode : Container [email protected]
Codec ID : V_MPEG4/ISO/AVC
Duration : 1h 23mn
Bit rate : 7 301 Kbps
Width : 1 920 pixels
Height : 1 080 pixels
Display aspect ratio : 16:9
Frame rate : 23.976 fps
Resolution : 24 bits
Colorimetry : 4:2:0
Scan type : Progressive
Bits/(Pixel*Frame) : 0.147
Stream size : 4.24 GiB (91%)
Title : edis.3d-tracker.ru
Writing library : x264 core
Audio
ID : 2
Format : AC-3
Format/Info : Audio Coding 3
Codec ID : A_AC3
Duration : 1h 23mn
Bit rate mode : Constant
Bit rate : 512 Kbps
Channel(s) : 6 channels
Channel positions : Front: L C R, Surround: L R, LFE
Sampling rate : 48.0 KHz
Stream size : 305 MiB (6%)

Доп. информация: Проверено на встроенном плейере LG575s



ba7d75ad88fd9f5c4d8695178ec88b5591eb657a[3D] Ржевский против Наполеона (Марюс Вайсберг, комедия, 2012) [BDRip1080p, оригинал] [Half OverUnder / Вертикальная анаморфная стереопара] [3D] Ржевский против Наполеона (Марюс Вайсберг, комедия, 2012) [BDRip1080p, оригинал] [Half OverUnder / Вертикальная анаморфная стереопара] " />

Аплоадер: Админ, дата: 1-04-2012, 18:09, торрент скачан: 359 раз

Понравилась раздача? Посмотрите эти:
  • [3D] Дикая Африка 3D / Wild Africa 3D (Питер Лорд, Документальный, 2013) [B ...
  • [3D] Джунгли 3D: Волшебство другого мира / Der Dschungel (Аттила Тенки, Док ...
  • [3D] Аквариум 3D / Aquarium 3D (Режиссёр не известен, Документальный, 2011) ...
  • [3D] В логове дракона / Into the Dragons Lair (Дидье Нуаре, Роджер Хоррокс, ...
  • [3D] Ржевский против Наполеона 3D (Марюс Вайсберг, Комедия, 2012) [Blu-ray ...
  • [3D] Ржевский против Наполеона 3D (Марюс Вайсберг, Комедия, 2012) [Blu-ray ...
  • [3D] Всемирное Природное Наследие: Гавайи / Weltnaturerbe Hawaii (Норберт В ...
  • [3D] Мальорка / Mallorca (Александр Р. Волф / Alexander R. Wolf, Документал ...
  • [3D] Спасатели 3D / Rescue 3D (Стивен Лоу / Stephen Low, Документальный, 20 ...
  • Ржевский против Наполеона (Марюс Вайсберг, комедия, 2011) [DVDRip-AVC, Не т ...
  • Ржевский против Наполеона(Марюс Вайсберг, комедия, 2012) [DVDRip-AVC, Не тр ...
  • Ржевский против Наполеона (Марюс Вайсберг, комедия, 2012) [BDRip-AVC, Не тр ...
  • [3D] 6 Трейлеров 3D фильмов [DCPrip-AVC, (дублированный Русский)][Anamorph ...
  • [3D] Кот и цыплёнок / I Tawt I Taw а Puddy Tat (Мэттью ОКаллаган / Matthew ...
  • [3D] Ржевский против Наполеона 3D (Марюс Вайсберг, Комедия, 2012) [BDRip 10 ...
  • [3D] Ржевский против Наполеона 3D (Марюс Вайсберг, Комедия, 2012) [BDRip, Н ...
  • [3D] The Black Eyed Peas / Imma Be (Поп-музыка, 2010) [BDRip-AVC, Перевод н ...
  • [3D] Прометей 3D трейлер / Prometheus 3D trailer (Ридли Скотт / Ridley Scot ...
  • [3D] Джунгли 3D трейлер (Александр Войтинский, Мелодрама, Комедия, Приключе ...
  • [3D] МикроПланета / MicroPlanet (Michael Watchulonis, Документальный, Видов ...
  • Ржевский против Наполеона (Марюс Вайсберг, Комедия, 2011) [BDRip 720p, Не т ...
  • Ржевский против Наполеона (Марюс Вайсберг, комедия, 2012) [DVD9, Не требует ...
  • Ржевский против Наполеона(Марюс Вайсберг, комедия, 2012) [DVDRip, Не требуе ...
  • Ржевский против Наполеона (Марюс Вайсберг, комедия, 2012) [HDRip, Не требуе ...
  • Ржевский против Наполеона (Марюс Вайсберг, Комедия, 2012) [BDRip, Не требуе ...
  • Информация
    Посетители, находящиеся в группе Гости, не могут оставлять комментарии к данной публикации.