вход на сайт

Имя пользователя :
Пароль :

Восстановление пароля Регистрация
[3D] Призраки дома Винчестеров в 3Д / Haunting of Winchester House in 3D (Марк Аткинс, ужасы, 2009) [BDRip 1080p, Профессиональный(многоголосый закадровый) + оригинал] Anaglyph / Анаглиф]
Рейтинг:
(голосов: 1)



[img]{THEME}/images/logopost.png[/img]



Призраки дома Винчестеров в 3Д / Haunting of Winchester House in 3D

Год выпуска: 2009
Страна:США
Выпущено:Global Asylum
Жанр: ужасы

Режиссёр: Марк Аткинс
В главных ролях: Лира Келлерман, Майкл Холмс, Kimberly Ables Jindra, Пэтти Робертс, Дженнифер Смарт, Rob Ullett, Дэвид Макинтайр, Savannah Schoenecker, Сари Шиэн, Риа Мейерс...

Перевод: Многоголосый закадровый + Оригинал
Субтитры: Отсутствуют

О фильме: Оказавшись в стесненных обстоятельствах, семья Гринеров соглашается присматривать за старинным особняком, несмотря на дурную славу зловещего жилища. Въехав в огромный дом, они довольно быстро сталкиваются с истинными хозяевами дома! Побеспокоенные вторжением призраки обрушивают весь свой гнев на непрошенных жильцов. Пытаясь разгадать тайну старого особняка, Гринеры обращаются за помощью к исследователю паранормальных явлений…



IMDB: рейтинг3.4/10 (593 votes)
КиноПоиск: рейтинг 2.7/10 (142 голосов)


MediaInfo ▼Text
General
Unique ID : 176854828466426021600788840721465245997 (0x850D00413A4AE99EA608FF0FBACC812D)
Complete name : /Torrents/home/alekseim/data/Haunting of winchester house.1080p.mkv
Format : Matroska
Format version : Version 2
File size : 6.67 GiB
Duration : 1h 25mn
Overall bit rate : 11.2 Mbps
Encoded date : UTC 2011-05-07 14:02:53
Writing application : mkvmerge v2.9.7 (Tenderness) built on Jul 1 2009 18:43:35
Writing library : libebml v0.7.7 + libmatroska v0.8.1

Video
ID : 1
Format : AVC
Format/Info : Advanced Video Codec
Format profile : [email protected]
Format settings, CABAC : Yes
Format settings, ReFrames : 4 frames
Codec ID : V_MPEG4/ISO/AVC
Duration : 1h 25mn
Bit rate : 10.8 Mbps
Width : 1 920 pixels
Height : 1 080 pixels
Display aspect ratio : 16:9
Frame rate : 23.976 fps
Color space : YUV
Chroma subsampling : 4:2:0
Bit depth : 8 bits
Scan type : Progressive
Bits/(Pixel*Frame) : 0.217
Stream size : 6.31 GiB (95%)
Writing library : x264 core 98 r1649 c54c47d
Encoding settings : cabac=1 / ref=4 / deblock=1:0:0 / analyse=0x3:0x133 / me=umh / subme=9 / psy=1 / psy_rd=1.00:0.00 / mixed_ref=1 / me_range=16 / chroma_me=1 / trellis=1 / 8x8dct=1 / cqm=0 / deadzone=21,11 / fast_pskip=0 / chroma_qp_offset=-2 / threads=12 / sliced_threads=0 / nr=0 / decimate=1 / interlaced=0 / constrained_intra=0 / bframes=3 / b_pyramid=2 / b_adapt=1 / b_bias=0 / direct=1 / weightb=1 / weightp=2 / keyint=250 / keyint_min=25 / scenecut=40 / intra_refresh=0 / rc_lookahead=40 / rc=2pass / mbtree=1 / bitrate=10784 / ratetol=1.0 / qcomp=0.60 / qpmin=10 / qpmax=51 / qpstep=4 / cplxblur=20.0 / qblur=0.5 / ip_ratio=1.40 / aq=1:1.00
Language : English
Default : Yes
Forced : No

Audio #1
ID : 2
Format : AC-3
Format/Info : Audio Coding 3
Mode extension : CM (complete main)
Codec ID : A_AC3
Duration : 1h 25mn
Bit rate mode : Constant
Bit rate : 192 Kbps
Channel(s) : 2 channels
Channel positions : Front: L R
Sampling rate : 48.0 KHz
Bit depth : 16 bits
Compression mode : Lossy
Stream size : 117 MiB (2%)
Language : Russian
Default : Yes
Forced : No

Audio #2
ID : 3
Format : AC-3
Format/Info : Audio Coding 3
Mode extension : CM (complete main)
Codec ID : A_AC3
Duration : 1h 25mn
Bit rate mode : Constant
Bit rate : 192 Kbps
Channel(s) : 2 channels
Channel positions : Front: L R
Sampling rate : 48.0 KHz
Bit depth : 16 bits
Compression mode : Lossy
Stream size : 117 MiB (2%)
Language : English
Default : No
Forced : No


Качество: BDRip 1080p
Продолжительность: 01:25:32

Формат: MKV
Формат 3D: Anaglyph / Анаглиф redcyan
Видео кодек: AVC
Аудио кодек: AC3
Видео: 1920x1080 (16:9), AVC, 23,976 fps, 10 800 kbps, 0.21 bit/pixel
Аудио #1: Russian: 48.0 KHz, Audio Coding 3, 2 channels (L, R), 192 Kbps| Профессиональный (многоголосый закадровый)|
Аудио #3: English:48.0 KHz, Audio Coding 3, 2 channels (L, R), 192 Kbps



Наши рипы / Набор в РГ / Стол заказов РГ / Стол заказов п
c48ea2d05f3c8db5aa5491a9d3e9661976d25fc3[3D] Призраки дома Винчестеров в 3Д / Haunting of Winchester House in 3D (Марк Аткинс, ужасы, 2009) [BDRip 1080p, Профессиональный(многоголосый закадровый) + оригинал] Anaglyph / Анаглиф] [3D] Призраки дома Винчестеров в 3Д / Haunting of Winchester House in 3D (Марк Аткинс, ужасы, 2009) [BDRip 1080p, Профессиональный(многоголосый закадровый) + оригинал] Anaglyph / Анаглиф] " />

Аплоадер: Админ, дата: 22-03-2012, 23:54, торрент скачан: 359 раз

Понравилась раздача? Посмотрите эти:
  • За кадром... / In a World...(Лэйк Белл, комедия, 2013) [BDRip-AVC, Професси ...
  • Погнали! / Getaway (Кортни Соломон, боевик, криминал, 2013) [BDRip 720p, Пр ...
  • Бэндслэм / Bandslam (Тодд Графф,Комедия, Мелодрама, 2009) [BDRip 1080p, Про ...
  • Пастырь / Priest (Скотт Чарльз Стюарт, ужасы, фантастика, боевик, триллер, ...
  • Ночь с Бет Купер / I Love You, Beth Cooper (Крис Коламбус, Комедия, 2009) [ ...
  • Смерть на похоронах / Death at a Funeral (Нил ЛаБут, комедия, 2010) [BDRip ...
  • Отдел 13 / Diamant 13 (Гайллз Бэхат, Боевик, триллер, криминал, 2009) [BDRi ...
  • Убить по расписанию / Ticking Clock (Эрни Барбараш, фантастика, боевик, три ...
  • Шелуха / Husk (Бретт Симмонс, ужасы, триллер, 2011) [BDRip 720p, Профессион ...
  • Властелин измерений / Grande ourse - La cle des possibles (Патрис Сов, фант ...
  • Персонаж / Stranger Than Fiction (Марк Форстер, Комедия, драма, фантастика, ...
  • Поворот не туда 4 / Wrong Turn 4 (Деклан О’Брайэн, ужасы, боевик, детектив, ...
  • Пятница 13-е / Friday the 13th (Шон С. Каннингэм, ужасы, триллер, детектив, ...
  • [3D] Аватар 3D / Avatar 3D (Джеймс Кэмерон / James Cameron, Фантастика, бое ...
  • [3D] Призраки дома Винчестеров в 3Д / Haunting of Winchester House in 3D (М ...
  • [3D] Другой мир: Пробуждение / Underworld: Awakening (Манс Марлинд , ужасы, ...
  • [3D] Призрачный гонщик 2 / Ghost Rider: Spirit of Vengeance (Марк Невелдайн ...
  • Один Дома / Home Alone (Крис Коламбус, комедия, приключения, семейный, 1990 ...
  • Один дома 2: Затерянный в Нью-Йорке / Home Alone 2: Lost in New York (Крис ...
  • Скуби-Ду 3: Тайна начинается / Scooby-Doo! The Mystery Begins (Брайан Леван ...
  • [NG] Растения - монстры (Поразительные растения) / Sex, Drugs and Plants (A ...
  • Mylene Farmer / Du Temps [2011, Pop, HDTVRip]
  • Mylene Farmer / Bleu Noir [2011, Pop, HDTVRip]
  • PBS: Природа – Гималаи / PBS: Nature – The Himalayas (Крис Морган, Докумен ...
  • Футбольные гладиаторы / Ушедшее время / Awaydays (Пэт Холден, драма, кримин ...
  • Информация
    Посетители, находящиеся в группе Гости, не могут оставлять комментарии к данной публикации.