вход на сайт

Имя пользователя :
Пароль :

Восстановление пароля Регистрация
[3D]Трансформеры 3: Тёмная сторона Луны / Transformers: Dark of the Moon (Майкл Бэй, Фантастика, Приключения ,2011) [BDRip.дублированный,Half OverUnder]
Рейтинг:
(голосов: 1)



[img]{THEME}/images/logopost.png[/img]




Трансформеры 3: Тёмная сторона Луны 3D / Transformers: Dark of the Moon in 3D

Год выпуска: 2011
Страна:США
Производство: Paramount Pictures, Hasbro Inc.
Жанр:Фантастика, Боевик, Приключения
Режиссёр: Майкл Бэй / Michael Bay

В ролях: Шайа ЛаБаф, Джош Дюамель, Джон Туртурро, Тайриз Гибсон, Роузи Хантингтон-Уайтли, Патрик Демпси, Кевин Данн, Джули Уайт, Джон Малкович, Фрэнсис МакДорманд, Алан Тьюдик, Кен Жонг, Гленн Моршауэр, Майти Раста, Билл О’Рейли, Равиль Исянов, Бретт Стимли, Дон Джинес

Перевод: Профессиональный (дублированный) + Многоголосый закадровый

Роли озвучивали: Илья Хвостиков, Сергей Бурунов, Константин Карасик, Пётр Иващенко, Полина Щербакова, Василий Дахненко, Александр Новиков, Ольга Зубкова, Леонид Белозорович, Елена Соловьева, Александр Дзюба, Диомид Виноградов, Александр Груздев, Михаил Белякович, Владимир Герасимов, Григорий Шевчук, Всеволод Кузнецов, Михаил Георгиу, Андрей Ярославцев, Владимир Зайцев, Борис Быстров

Субтитры: Русские форсированные, Русские полные, Английские

Чаптеры:Есть

Описание: Для наших героев наступили печальные будни: Сэм потерял Микаэлу, правительство выпускает законодательный акт о выселении Автоботов с Земли, а пока Мегатрон скрывается после позорного поражения Фоллена, десептикон Шокуэйв, правитель Кибертрона, готовится нанести визит нашей планете с совсем недобрыми намерениями. Действие заключительной части трилогии на этот раз охватит не только Землю, но и Луну, темная сторона которой хранит не менее темные тайны.



Кассовые сборы: ▼
MI ▼General
UniqueID : 185811563701715640581757990527578951642 (0x8BCA016579ED10E99B9418A694684FDA)
Complete name : F: DownloadsTransformers.Dark Of The Moon.2011.halfOU.mkv
Format : Matroska
File size : 19.0 GiB
Duration : 2h 34mn
Overall bit rate : 17.6 Mbps
Movie name : Transformers: Dark of the Moon 3D (Ash61)
Encoded date : UTC 2012-01-25 16:03:39
Writing application : mkvmerge v3.4.0 (Rapunzel) сборка от May 15 2010 09:38:20
Writing library : libebml v0.8.0 + libmatroska v0.9.0

Video
ID : 1
Format : AVC
Format/Info : Advanced Video Codec
Format profile : [email protected]
Format settings, CABAC : Yes
Format settings, ReFrames : 4 frames
Codec ID : V_MPEG4/ISO/AVC
Duration : 2h 34mn
Bit rate : 15.0 Mbps
Width : 1 920 pixels
Height : 1 080 pixels
Display aspect ratio : 16:9
Frame rate : 23.976 fps
Color space : YUV
Chroma subsampling : 4:2:0
Bit depth : 8 bits
Scan type : Progressive
Bits/(Pixel*Frame) : 0.301
Stream size : 16.1 GiB (85%)
Title : BDrip by Ash61
Writing library : x264 core 119 r2106 07efeb4
Encoding settings : cabac=1 / ref=4 / deblock=1:-3:-3 / analyse=0x3:0x113 / me=umh / subme=9 / psy=1 / psy_rd=1.00:0.15 / mixed_ref=1 / me_range=16 / chroma_me=1 / trellis=2 / 8x8dct=1 / cqm=0 / deadzone=21,11 / fast_pskip=1 / chroma_qp_offset=-3 / threads=3 / sliced_threads=0 / nr=0 / decimate=1 / interlaced=0 / bluray_compat=0 / constrained_intra=0 / bframes=6 / b_pyramid=2 / b_adapt=2 / b_bias=0 / direct=3 / weightb=1 / open_gop=0 / weightp=2 / keyint=250 / keyint_min=23 / scenecut=40 / intra_refresh=0 / rc_lookahead=60 / rc=crf / mbtree=1 / crf=17.5 / qcomp=0.70 / qpmin=0 / qpmax=69 / qpstep=4 / vbv_maxrate=40000 / vbv_bufsize=40000 / crf_max=0.0 / nal_hrd=none / ip_ratio=1.40 / aq=1:0.70

Audio #1
ID : 2
Format : AC-3
Format/Info : Audio Coding 3
Mode extension : CM (complete main)
Codec ID : A_AC3
Duration : 2h 34mn
Bit rate mode : Constant
Bit rate : 640 Kbps
Channel(s) : 6 channels
Channel positions : Front: L C R, Side: L R, LFE
Sampling rate : 48.0 KHz
Bit depth : 16 bits
Compression mode : Lossy
Stream size : 707 MiB (4%)
Title : Дубляж
Language : Russian

Audio #2
ID : 3
Format : AC-3
Format/Info : Audio Coding 3
Mode extension : CM (complete main)
Codec ID : A_AC3
Duration : 2h 34mn
Bit rate mode : Constant
Bit rate : 640 Kbps
Channel(s) : 6 channels
Channel positions : Front: L C R, Side: L
0fc25692b23590fa363faa4a1a855fa48a7e0323[3D]Трансформеры 3: Тёмная сторона Луны / Transformers: Dark of the Moon (Майкл Бэй, Фантастика, Приключения ,2011) [BDRip.дублированный,Half OverUnder] [3D]Трансформеры 3: Тёмная сторона Луны / Transformers: Dark of the Moon (Майкл Бэй, Фантастика, Приключения ,2011) [BDRip.дублированный,Half OverUnder] " />

Аплоадер: Админ, дата: 29-01-2012, 21:27, торрент скачан: 359 раз

Понравилась раздача? Посмотрите эти:
  • Трансформеры 3: Тёмная сторона Луны / Transformers: Dark of the Moon (Майкл ...
  • Трансформеры 3: Темная сторона Луны / Transformers: Dark of the Moon (Майкл ...
  • Трансформеры 3: Тёмная сторона Луны / Transformers: Dark of the Moon (Майкл ...
  • Трансформеры 3: Тёмная сторона Луны / Transformers: Dark of the Moon (Майкл ...
  • Трансформеры 3: Тёмная сторона Луны / Transformers: Dark of the Moon (Майкл ...
  • Трансформеры 3: Тёмная сторона Луны / Transformers: Dark of the Moon (Майкл ...
  • Трансформеры 3: Тёмная сторона Луны / Transformers: Dark of the Moon (Майкл ...
  • [3D] Трансформеры 3: Темная сторона Луны 3д / Transformers: Dark of the Moo ...
  • Трансформеры 3: Тёмная сторона Луны / Transformers: Dark of the Moon (Майкл ...
  • Трансформеры 3: Тёмная сторона Луны / Transformers: Dark of the Moon (Майкл ...
  • Трансформеры 3: Тёмная сторона Луны / Transformers: Dark of the Moon (Майкл ...
  • Трансформеры 3: Тёмная сторона Луны / Transformers: Dark of the Moon (Майкл ...
  • Трансформеры 3: Тёмная сторона Луны / Transformers: Dark of the Moon (Майкл ...
  • Трансформеры 3: Темная сторона Луны / Transformers: Dark of the Moon (Майкл ...
  • Трансформеры 3: Тёмная сторона Луны / Transformers: Dark of the Moon (Майкл ...
  • Трансформеры 3: Тёмная сторона Луны / Transformers: Dark of the Moon (Майкл ...
  • Трансформеры 3: Тёмная сторона Луны / Transformers 3: Dark of the Moon (Май ...
  • Трансформеры 3: Тёмная сторона Луны / Transformers: Dark of the Moon (Майкл ...
  • Трансформеры 3: Тёмная сторона Луны / Transformers: Dark of the Moon (Майкл ...
  • Трансформеры 3: Тёмная сторона Луны / Transformers: Dark of the Moon (Майкл ...
  • Трансформеры 3: Тёмная сторона Луны / Transformers: Dark of the Moon (Майкл ...
  • Трансформеры 3: Тёмная сторона Луны / Transformers: Dark of the Moon CEE (М ...
  • [3D] Трансформеры 3: Тёмная сторона Луны 3D / Transformers: Dark of the Moo ...
  • Трансформеры 3:Тёмная сторона Луны/Transformers:Dark of the Moon (фантастик ...
  • Трансформеры 3: Тёмная сторона Луны / Transformers: Dark of the Moon (Майкл ...
  • Информация
    Посетители, находящиеся в группе Гости, не могут оставлять комментарии к данной публикации.