вход на сайт

Имя пользователя :
Пароль :

Восстановление пароля Регистрация
[3D] Шаг вперед 3D / Step Up 3D (Джон М. Чу, мелодрама, драма, музыка, 2010) [BDrip 1080р, Профессиональный (полное дублирование)][Half SideBySide / Горизонтальная анаморфная стереопара]
Рейтинг:
(голосов: 1)



[img]{THEME}/images/logopost.png[/img]



Шаг вперед 3D / Step Up 3D

Cлоган: «Шагни навстречу 3D»

Год выпуска: 2010
Страна: США
Выпущено: Summit Entertainment
Жанр: мелодрама, драма, музыка

Режиссёр: Джон М. Чу
В главных ролях: Рик Маламбри, Адам Дж. Севани, Шарни Винсон, Элисон Стоунер, Кит Ремеди Сталлворт, Кендра Эндрюс, Стивен Стэннерт, Мартин Ломбард, Факундо Ломбард, Орен Михаэли, Джо Слотер, Дэниель Облако Кампос

Перевод: Профессиональный (Полное дублирование)
Субтитры: Отсутствуют

О фильме:
Некоторые учатся танцевать, другие рождены для этого. Люк ищет танцоров для своей команды «Пираты». В конце концов, ему встречаются Лось, поступивший в Нью-Йоркский университет, и Натали, загадочная танцовщица, которая никогда не проигрывает. Смогут ли они превзойти лучших мировых танцоров?




Качество: BDRip 1080p
Продолжительность: 01:47:11

Формат: MKV
Формат 3D:Half SideBySide / Горизонтальная анаморфная стереопара
Видео кодек: x264
Аудио кодек: DTS
Видео: MPEG4 Video (H264) 1920x1080 23.98fps 14.5 Mbps Bits/(Pixel*Frame) : 0.291
Аудио1: Russian : DTS 48000Hz 6ch 755 kbps
Аудио2: English : DTS 48000Hz 6ch 1510 kbps

MediaInfo ▼
Format : Matroska
File size : 12.8 GiB
Duration : 1h 47mn
Overall bit rate : 17.1 Mbps
Encoded date : UTC 2010-12-19 03:33:21
Writing application : mkvmerge v2.9.7 (Tenderness) built on Jul 1 2009 18:43:35
Writing library : libebml v0.7.7 + libmatroska v0.8.1
Video
ID : 1
Format : AVC
Format/Info : Advanced Video Codec
Format profile : [email protected]
Format settings, CABAC : Yes
Format settings, ReFrames : 4 frames
Muxing mode : Container [email protected]
Codec ID : V_MPEG4/ISO/AVC
Duration : 1h 47mn
Bit rate : 14.5 Mbps
Width : 1 920 pixels
Height : 1 080 pixels
Display aspect ratio : 16:9
Frame rate : 23.976 fps
Color space : YUV
Chroma subsampling : 4:2:0
Bit depth : 8 bits
Scan type : Progressive
Bits/(Pixel*Frame) : 0.291
Stream size : 10.8 GiB (85%)
Writing library : x264 core 110 r1820 fdcf2ae
Encoding settings : cabac=1 / ref=4 / deblock=1:-2:-2 / analyse=0x3:0x113 / me=umh / subme=7 / psy=1 / psy_rd=1.00:0.15 / mixed_ref=1 / me_range=16 / chroma_me=1 / trellis=2 / 8x8dct=1 / cqm=0 / deadzone=21,11 / fast_pskip=1 / chroma_qp_offset=-3 / threads=6 / sliced_threads=0 / nr=0 / decimate=1 / interlaced=0 / constrained_intra=0 / bframes=6 / b_pyramid=0 / b_adapt=2 / b_bias=0 / direct=3 / weightb=1 / open_gop=0 / weightp=2 / keyint=250 / keyint_min=23 / scenecut=40 / intra_refresh=0 / rc_lookahead=40 / rc=crf / mbtree=1 / crf=18.0 / qcomp=0.60 / qpmin=10 / qpmax=51 / qpstep=4 / ip_ratio=1.40 / aq=1:1.00
Language : English
Audio #1
ID : 2
Format : DTS
Format/Info : Digital Theater Systems
Codec ID : A_DTS
Duration : 1h 47mn
Bit rate mode : Constant
Bit rate : 755 Kbps
Channel(s) : 6 channels
Channel positions : Front: L C R, Side: L R, LFE
Sampling rate : 48.0 KHz
Bit depth : 24 bits
Stream size : 578 MiB (4%)
Title : DTS; 768 Kbps @ 5.1 Kbps - (Dubbing)
Language : Russian
Audio #2
ID : 3
Format : DTS
Format/Info : Digital Theater Systems
Format profile : ES
Codec ID : A_DTS
Duration : 1h 47mn
Bit rate mode : Constant
Bit rate : 1 510 Kbps
Channel(s) : 6 channels
Channel positions : Front: L C R, Side: L R, LFE
Sampling rate : 48.0 KHz
Bit depth : 24 bits
Stream size : 1.13 GiB (9%)
Title : DTS; 1536 Kbps @ 5.1 ch (English)
Language : English
Menu
00:00:00.000 : en:Chapter 1
00:04:30.854 : en:Chapter 2
00:09:58.681 : en:Chapter 3
00:15:26.759 : en:Chapter 4
00:20:01.784 : en:Chapter 5
00:24:44.149 : en:Chapter 6
00:29:44.199 : en:Chapter 7
00:37:10.311 : en:Chapter 8
00:41:22.271 : en:Chapter 9
00:45:44.700 : en:Chapter 10
00:49:22.084 : en:Chapter 11
00:56:06.363 : en:Chapter 12
01:00:27.624 : en:Chapter 13
01:05:34.097 : en:Chapter 14
01:12:26.801 : en:Chapter 15
01:19:02.655 : en:Chapter 16
01:24:22.766 : en:Chapter 17
01:30:23.668 : en:Chapter 18
01:35:01.696 : en:Chapter 19
01:40:0
5fd404e3530dcb9bcc3c7bb4407cec9383f5d037[3D] Шаг вперед 3D / Step Up 3D (Джон М. Чу, мелодрама, драма, музыка, 2010) [BDrip 1080р, Профессиональный (полное дублирование)][Half SideBySide / Горизонтальная анаморфная стереопара] [3D] Шаг вперед 3D / Step Up 3D (Джон М. Чу, мелодрама, драма, музыка, 2010) [BDrip 1080р, Профессиональный (полное дублирование)][Half SideBySide / Горизонтальная анаморфная стереопара] " />

Аплоадер: Админ, дата: 13-01-2012, 16:41, торрент скачан: 359 раз

Понравилась раздача? Посмотрите эти:
  • Грязь / Filth (Джон С. Бейрд, криминал, драма, комедия, 2013) [BDRip-AVC, ...
  • Даю год / I Give It a Year (Дэн Мазер, Мелодрама, Комедия, 2013) [BDRip-AVC ...
  • О чём молчат девушки (Карен Оганесян, Комедия, 2013) [BDRip-AVC, Не требует ...
  • Шаг вперед 3 / Step Up 3 (Джон М. Чу, драма, мелодрама, музыка, 2010) [HDRi ...
  • Шаг вперед 3 / Step Up 3 (Джон М. Чу, Драма, мелодрама, музыка, 2010) [BDRi ...
  • Шаг вперед 3 / Step Up 3 (Джон М. Чу, драма, мелодрама, музыка, 2010) [BDRi ...
  • Жизнь прекрасна / La Vita è bella (Роберто Бениньи, Драма, мелодрама, комед ...
  • Шаг вперед 3 / Step Up 3D (Джон М. Чу, драма, мелодрама, музыка, 2010) [BDR ...
  • [3D] Шаг вперед / Step Up (Джон М. Чу, драма, мелодрама, музыка, 2010) [BDR ...
  • [3D] Шаг вперед 3D / Step Up 3D (Джон М. Чу / Jon Chu, Мелодрама, Драма, Му ...
  • Шаг вперед 3 / Step Up 3 (Джон М. Чу, драма, мелодрама, музыка, 2010) [BDRi ...
  • Секс по дружбе / Friends with Benefits (Уилл Глак, драма, мелодрама, комеди ...
  • Схватка / The Grey (Джо Карнахан, Боевик, 2012) [BDRip 720p, Профессиональн ...
  • Запрещенная реальность (Константин Максимов, фантастика, боевик, 2009) [BDR ...
  • Ю-571 / U-571 (Джонатан Мостоу, Боевик, 2000) [BDRip - AVC, Дубляж + Субтит ...
  • Шаг вперед 3 / Step Up 3 (Джон М. Чу, драма, мелодрама, музыка, 2010) [HDRi ...
  • Шаг вперед 3 / Step Up 3 (Джон М. Чу, драма, мелодрама, музыка, 2010) [BDRi ...
  • Шаг вперед 3 / Step Up 3 (Джон М. Чу, драма, мелодрама, музыка, 2010) [320x ...
  • [3D] Шаг вперед / Step Up (Джон М. Чу, драма, мелодрама, музыка, 2010) [B ...
  • Собачье сердце (Владимир Бортко, фантастика, драма, комедия, 1988) [BDRip 1 ...
  • Информация
    Посетители, находящиеся в группе Гости, не могут оставлять комментарии к данной публикации.