вход на сайт

Имя пользователя :
Пароль :

Восстановление пароля Регистрация
[3D] Битва Титанов / Clash of the Titans (Луи Летерье , боевик, фэнтези, драма, приключения, 2010) [BDRip, Профессиональный (дублированный)][OverUnder / Вертикальная стереопара]
Рейтинг:
(голосов: 1)



[img]{THEME}/images/logopost.png[/img]



Битва Титанов / Clash of the Titans

Cлоган: «Легенды оживают в 3D»

Год выпуска: 2010
Страна: США, Великобритания
Выпущено: Warner Bros
Жанр: боевик, фэнтези, драма, приключения

Режиссёр: Луи Летерье / Louis Leterrier
В главных ролях: Сэм Уортингтон, Лиам Нисон, Рэйф Файнс, Джейсон Флеминг, Джемма Артертон, Алекса Давалос, Тине Штапельфелдт, Мадс Миккельсен, Люк Эванс, Изабелла Мико

Перевод: Профессиональный (Полное дублирование)
Субтитры: Отсутствуют

О фильме: Персей, сын бога, воспитанный человеком, не смог защитить свою семью от Аида, мстительного повелителя подземного мира. Теперь ему уже нечего терять, и он добровольно соглашается возглавить опасную миссию, чтобы одержать победу над Аидом до того, как тот отберет власть у Зевса и выпустит демонов подземного царства на Землю. Возглавляя отряд бесстрашных воинов, Персей отправляется в рискованное путешествие по лабиринту запретных миров. Чтобы победить в свирепой схватке с жуткими демонами и злобными чудовищами, противостоять злому року и стать хозяином своей судьбы, он должен осознать и принять свою божественную силу.




бюджет: $125 000 000
сборы в США: $163 214 888
сборы в мире: + $330 000 000 = $493 214 888
сборы в России: $24 975 874

Качество: BDRip
Продолжительность: 01:46:07

Формат: MKV
Формат 3D: OverUnder / Вертикальная стереопара
Видео кодек: x264
Аудио кодек: AC3
Видео: MPEG4 Video (H264) / 1920x1600 / 23.98fps / 19.5 Mbps / Bits/(Pixel*Frame) : 0.264
Аудио1: Russian: 48 kHz, AC3, 3/2 (L,C,R,l,r) + LFE ch, ~448 kbps avg |Дубляж, Blu-ray CEE|
Аудио2: English: 48 kHz, AC3, 3/2 (L,C,R,l,r) + LFE ch, ~640 kbps

MediaInfo ▼
Format : Matroska
File size : 15.6 GiB
Duration : 1h 46mn
Overall bit rate : 21.0 Mbps
Encoded date : UTC 2010-09-04 17:22:52
Writing application : mkvmerge v2.9.7 (Tenderness) built on Jul 1 2009 18:43:35
Writing library : libebml v0.7.7 + libmatroska v0.8.1
Video
ID : 1
Format : AVC
Format/Info : Advanced Video Codec
Format profile : [email protected]
Format settings, CABAC : Yes
Format settings, ReFrames : 4 frames
Muxing mode : Container [email protected]
Codec ID : V_MPEG4/ISO/AVC
Duration : 1h 46mn
Bit rate : 19.5 Mbps
Width : 1 920 pixels
Height : 1 600 pixels
Display aspect ratio : 1.194
Frame rate : 23.976 fps
Resolution : 8 bits
Colorimetry : 4:2:0
Scan type : Progressive
Bits/(Pixel*Frame) : 0.264
Stream size : 14.4 GiB (93%)
Writing library : x264 core 104 r1703 cd21d05
Encoding settings : cabac=1 / ref=4 / deblock=1:-1:-2 / analyse=0x3:0x113 / me=umh / subme=7 / psy=1 / psy_rd=1.00:0.15 / mixed_ref=1 / me_range=16 / chroma_me=1 / trellis=2 / 8x8dct=1 / cqm=0 / deadzone=21,11 / fast_pskip=1 / chroma_qp_offset=-3 / threads=6 / sliced_threads=0 / nr=0 / decimate=1 / interlaced=0 / constrained_intra=0 / bframes=6 / b_pyramid=0 / b_adapt=2 / b_bias=0 / direct=3 / weightb=1 / open_gop=0 / weightp=2 / keyint=250 / keyint_min=23 / scenecut=40 / intra_refresh=0 / rc_lookahead=40 / rc=crf / mbtree=1 / crf=18.0 / qcomp=0.60 / qpmin=10 / qpmax=51 / qpstep=4 / ip_ratio=1.40 / aq=1:1.00
Language : English
Audio #1
ID : 2
Format : AC-3
Format/Info : Audio Coding 3
Format_Settings_ModeExtension : CM (complete main)
Codec ID : A_AC3
Duration : 1h 46mn
Bit rate mode : Constant
Bit rate : 448 Kbps
Channel(s) : 6 channels
Channel positions : Front: L C R, Side: L R, LFE
Sampling rate : 48.0 KHz
Stream size : 340 MiB (2%)
Title : Dublyazh AC3 5.1 448 kbps
Language : Russian
Audio #2
ID : 3
Format : AC-3
Format/Info : Audio Coding 3
Format_Settings_ModeExtension : CM (complete main)
Codec ID : A_AC3
Duration : 1h 46mn
Bit rate mode : Constant
Bit rate : 640 Kbps
Channel(s) : 6 channels
Channel positions : Front: L C R, Side: L R, LFE
Sampling rate : 48.0 KHz
Stream size : 486 MiB (3%)
Language : English


Наши рипы / Набор в РГ / Стол заказов РГ / Новости РГ




b894fbddb2831e855b2ea11a2f1ba624b5f8d243[3D] Битва Титанов / Clash of the Titans (Луи Летерье , боевик, фэнтези, драма, приключения, 2010) [BDRip, Профессиональный (дублированный)][OverUnder / Вертикальная стереопара] [3D] Битва Титанов / Clash of the Titans (Луи Летерье , боевик, фэнтези, драма, приключения, 2010) [BDRip, Профессиональный (дублированный)][OverUnder / Вертикальная стереопара] " />

Аплоадер: Админ, дата: 12-01-2012, 12:51, торрент скачан: 359 раз

Понравилась раздача? Посмотрите эти:
  • Битва Титанов / Clash of the Titans (Луи Летерье / Louis Leterrier,Боевик, ...
  • Битва Титанов / Clash of the Titans (Луи Летерье, боевик, фэнтези, драма, п ...
  • Битва Титанов / Clash of the Titans (Луи Летерье, фэнтези, боевик, приключе ...
  • [3D] Шевели ластами! / Sammys avonturen: De geheime doorgang (Бен Стассен / ...
  • [3D] Пункт назначения 4 3Д / The Final Destination 3D (Дэвид Р. Эллис / Dav ...
  • [3D]Конан-варвар в 3Д / Conan the Barbarian 3D (Маркус Ниспел / Marcus Nisp ...
  • [3D] Титаник 3Д трейлер / Titanic 3d Trailer [DCPrip-AVC, (дублированный Ру ...
  • [3D] Кот и цыплёнок / I Tawt I Taw а Puddy Tat (Мэттью ОКаллаган / Matthew ...
  • [3D] Глаз ребенка / Childs Eye (Оксид Пан, ужасы, 2010) [BDrip, Профессиона ...
  • [3D] Глаз ребенка / Childs Eye (Оксид Пан, ужасы, 2010) [BDRip, Дублированн ...
  • [3D] Миссия Дарвина / G-Force 3D (Хойт Йетмен, мультфильм, фэнтези, боевик, ...
  • [3D] Битва Титанов / Clash of the Titans (Луи Летерье / Louis Leterrier, Фэ ...
  • Битва Титанов / Clash of the Titans (Луи Летерье, боевик, фэнтези, драма, п ...
  • Битва Титанов / Clash of the Titans (Луи Летерье, боевик, фэнтези, драма, п ...
  • Битва Титанов / Clash of the Titans (Луи Летерье, фэнтези, боевик, приключе ...
  • Битва Титанов / Clash of the Titans (Луи Летерье, боевик, фэнтези, драма, п ...
  • Битва Титанов / Clash of the Titans (Луи Летерье,боевик, фэнтези, драма, пр ...
  • Битва Титанов / Clash of the Titans (Луи Летерье, Боевик, фэнтези, драма, п ...
  • Битва титанов / Clash of the Titans (Луи Летерье, боевик, фэнтези, драма, п ...
  • Битва титанов / Clash of the Titans (Луи Летерье / Louis Leterrier, боевик, ...
  • Битва титанов 3D / Clash of the Titans 3D (Луи Летерье / Фэнтези, боевик, ...
  • Битва Титанов в 3Д / Clash of the Titans 3D (Луи Летерье / Louis Leterrier, ...
  • Битва Титанов / Clash of the Titans (Луи Летерье, фэнтези, боевик, приключе ...
  • Битва Титанов / Clash of the Titans (Луи Летерье, Боевик, Фэнтези, Драма, П ...
  • Битва Титанов / Clash of the Titans (Луи Летерье, боевик, фэнтези, драма, п ...
  • Информация
    Посетители, находящиеся в группе Гости, не могут оставлять комментарии к данной публикации.