вход на сайт

Имя пользователя :
Пароль :

Восстановление пароля Регистрация
[3D] Гарри Поттер и Дары Смерти: часть 2 / Harry Potter and the Deathly Hallows: Part II (Дэвид Йейтс, Приключения, фэнтези, 2011) [BDrip 1080p, Профессиональный (дублированный)][Half SideBySide / Горизонтальная анаморфная стереопара]
Рейтинг:
(голосов: 1)



[img]{THEME}/images/logopost.png[/img]



Гарри Поттер и Дары Смерти: часть 2 / Harry Potter and the Deathly Hallows: Part II

Cлоган: "Все закончится"

Год выпуска: 2011
Страна: США, Великобритания
Выпущено: Warner Bros. Pictures
Жанр: Приключения, фэнтези

Режиссёр: Дэвид Йейтс
В главных ролях: Дэниел Рэдклифф, Рэйф Файнс, Руперт Гринт, Эмма Уотсон


Перевод: Профессиональный (Полное дублирование)
Субтитры: Русские форсированные, русские, английские

О фильме:
В грандиозной последней главе битва между добрыми и злыми силами мира волшебников перерастает во всеобщую войну. Ставки ещё никогда не были так высоки, а поиск убежища — столь сложен. И быть может именно Гарри Поттеру придется пожертвовать всем в финальном сражении с Волан-де-Мортом. Способен ли наш герой спасти мир? И всё закончится здесь.





Качество: BDRip 1080p
Продолжительность: 02:10:25

Формат: MKV
Формат 3D: Half SideBySide / Горизонтальная анаморфная стереопара
Порядок ракурсов: левый ракурс первый
Видео кодек: x264
Аудио кодек: AC3
Видео: MPEG4 Video (H264), 1920x1080, 23.976 fps, 15 Mbps, Bits/(Pixel*Frame) : 0.301
Аудио: Dolby AC3, 48000 Hz, 6 ch, 640 Kbps (Русский Дубляж)
Аудио: Dolby AC3, 48000 Hz, 6 ch, 640 Kbps (Украинский Дубляж)
Аудио: Dolby AC3, 48000 Hz, 6 ch, 640 Kbps (English)

MediaInfo ▼
Format : Matroska
Format version : Version 2
File size : 15.7 GiB
Duration : 2h 10mn
Overall bit rate : 17.2 Mbps
Encoded date : UTC 2011-11-20 04:48:41
Writing application : mkvmerge v5.0.0 (Die Wahre Liebe) built on Sep 25 2011 20:33:49
Writing library : libebml v1.2.2 + libmatroska v1.3.0
Video
ID : 1
Format : AVC
Format/Info : Advanced Video Codec
Format profile : [email protected]
Format settings, CABAC : Yes
Format settings, ReFrames : 4 frames
Codec ID : V_MPEG4/ISO/AVC
Duration : 2h 10mn
Bit rate : 15.0 Mbps
Width : 1 920 pixels
Height : 1 080 pixels
Display aspect ratio : 16:9
Frame rate : 23.976 fps
Color space : YUV
Chroma subsampling : 4:2:0
Bit depth : 8 bits
Scan type : Progressive
Bits/(Pixel*Frame) : 0.301
Stream size : 13.6 GiB (87%)
Writing library : x264 core 118 r2085 8a62835
Encoding settings : cabac=1 / ref=4 / deblock=1:-1:-1 / analyse=0x3:0x113 / me=umh / subme=8 / psy=1 / psy_rd=1.00:0.15 / mixed_ref=1 / me_range=16 / chroma_me=1 / trellis=1 / 8x8dct=1 / cqm=0 / deadzone=21,11 / fast_pskip=1 / chroma_qp_offset=-3 / threads=6 / sliced_threads=0 / nr=0 / decimate=1 / interlaced=0 / bluray_compat=0 / constrained_intra=0 / bframes=3 / b_pyramid=2 / b_adapt=2 / b_bias=0 / direct=3 / weightb=1 / open_gop=0 / weightp=2 / keyint=250 / keyint_min=23 / scenecut=40 / intra_refresh=0 / rc_lookahead=50 / rc=crf / mbtree=1 / crf=16.0 / qcomp=0.60 / qpmin=0 / qpmax=69 / qpstep=4 / ip_ratio=1.40 / aq=1:1.00
Language : English
Audio #1
ID : 2
Format : AC-3
Format/Info : Audio Coding 3
Mode extension : CM (complete main)
Codec ID : A_AC3
Duration : 2h 10mn
Bit rate mode : Constant
Bit rate : 640 Kbps
Channel(s) : 6 channels
Channel positions : Front: L C R, Side: L R, LFE
Sampling rate : 48.0 KHz
Bit depth : 16 bits
Compression mode : Lossy
Stream size : 597 MiB (4%)
Title : Дубляж
Language : Russian
Audio #2
ID : 3
Format : AC-3
Format/Info : Audio Coding 3
Mode extension : CM (complete main)
Codec ID : A_AC3
Duration : 2h 10mn
Bit rate mode : Constant
Bit rate : 640 Kbps
Channel(s) : 6 channels
Channel positions : Front: L C R, Side: L R, LFE
Sampling rate : 48.0 KHz
Bit depth : 16 bits
Compression mode : Lossy
Stream size : 597 MiB (4%)
Title : Дубляж
Language : Ukrainian
Audio #3
ID : 4
Format : AC-3
Format/Info : Audio Coding 3
Mode extension : CM (complete main)
Codec ID : A_AC3
Duration : 2h 10mn
Bit rate mode : Constant
Bit rate : 640 Kbps
Channel(s) : 6 channels
Channel positions : Front: L C R, Side: L R, LFE
Sampling rate : 48.0 KHz
Bit depth : 16 bits
Compression mode : Lossy
Stream size : 597 MiB (4%)
Language : English
Text #1
ID : 5
a91442168a774e20bd13b9973662aeb544314a12[3D] Гарри Поттер и Дары Смерти: часть 2 / Harry Potter and the Deathly Hallows: Part II (Дэвид Йейтс, Приключения, фэнтези, 2011) [BDrip 1080p, Профессиональный (дублированный)][Half SideBySide / Горизонтальная анаморфная стереопара] [3D] Гарри Поттер и Дары Смерти: часть 2 / Harry Potter and the Deathly Hallows: Part II (Дэвид Йейтс, Приключения, фэнтези, 2011) [BDrip 1080p, Профессиональный (дублированный)][Half SideBySide / Горизонтальная анаморфная стереопара] " />

Аплоадер: Админ, дата: 9-01-2012, 11:37, торрент скачан: 359 раз

Понравилась раздача? Посмотрите эти:
  • Гарри Поттер и Дары смерти: Часть 1 / Harry Potter and the Deathly Hallows: ...
  • Гарри Поттер и Дары смерти: Часть 2 / Harry Potter and the Deathly Hallows: ...
  • Гарри Поттер и Дары смерти: Часть II / Harry Potter and the Deathly Hallows ...
  • Гарри Поттер и Дары смерти: Часть 2 / Harry Potter and the Deathly Hallows: ...
  • Гарри Поттер и Дары смерти: Часть II / Harry Potter and the Deathly Hallows ...
  • [3D] Гарри Поттер и дары смерти: Часть 2 3D / Harry Potter and the Deathly ...
  • Гарри Поттер и Дары смерти: Часть 1 / Harry Potter and the Deathly Hallows ...
  • Гарри Поттер и Дары смерти: Часть 1 / Harry Potter and the Deathly Hallows: ...
  • Гарри Поттер и Дары Смерти. Часть 2 / Harry Potter and the Deathly Hallows. ...
  • [Дилогия] Гарри Поттер и Дары смерти / [Dilogy] Harry Potter and the Deathl ...
  • (2010) Alexandre Desplat / HARRY POTTER AND THE DEATHLY HALLOWS PART I / ГА ...
  • Гарри Поттер и Дары смерти: Часть 1 / Harry Potter and the Deathly Hallows: ...
  • Гарри Поттер и Дары смерти: Часть 1 / Harry Potter and the Deathly Hallows: ...
  • Гарри Поттер и Дары смерти: Часть 1 / Harry Potter and the Deathly Hallows: ...
  • Гарри Поттер и Дары смерти: Часть 1 / Harry Potter and the Deathly Hallows: ...
  • Гарри Поттер и Дары смерти: Часть 1 / Harry Potter and the Deathly Hallows: ...
  • Гарри Поттер и Дары Смерти. Часть 2 / Harry Potter and the Deathly Hallows. ...
  • Гарри Поттер и Дары смерти: Часть 2 / Harry Potter and the Deathly Hallows: ...
  • Гарри Поттер и Дары смерти: Часть 2 / Harry Potter and the Deathly Hallows: ...
  • Гарри Поттер и Дары смерти: Часть 2 / Harry Potter and the Deathly Hallows: ...
  • Гарри Поттер и Дары смерти: Часть II / Harry Potter and the Deathly Hallows ...
  • Гарри Поттер и Дары смерти: Часть 2 / Harry Potter and the Deathly Hallows: ...
  • [ENG] Гарри Поттер и Дары смерти: Часть II / Harry Potter and the Deathly H ...
  • [3D] Гарри Поттер и Дары смерти Часть I 3Д / Harry Potter and the Deathly H ...
  • [3D] Гарри Поттер и дары смерти: Часть 2 3D / Harry Potter and the Deathly ...
  • Информация
    Посетители, находящиеся в группе Гости, не могут оставлять комментарии к данной публикации.