вход на сайт

Имя пользователя :
Пароль :

Восстановление пароля Регистрация
[3D] Трансформеры 3: Темная сторона Луны 3д / Transformers: Dark of the Moon 3D (Майкл Бэй/Michael Bay, фантастика, боевик, 2011) [HDTV, Профессиональный (дублированный)][Горизонтальная анаморфная стереопара]
Рейтинг:
(голосов: 1)



[img]{THEME}/images/logopost.png[/img]



Tpaнсфоpмepы 3 : Teмнaя стоpонa луны 3д
Тrаnsfоrмеrs 3 : Dаrк оf thе мооn 3D

Год выпуска: 2011
Страна: США
Производство: Paramount Pictures, Hasbro, Di Bonaventu
Жанр: фантастика, боевик, приключения

Режиссёр: Майкл Бэй/Michael Bay

В ролях:
Шайа ЛаБаф, Роузи Хантингтон-Уайтли, Тайриз Гибсон, Джош Дюамель, Джон Туртурро, Патрик Демпси, Кевин Данн, Джули Уайт, Джон Малкович, Питер Каллен


Перевод: Профессиональный (дублированный)
Субтитры: (SRT): English, Russian (DUB), Russian (BBC Saint Petersburg)

Описание: Для наших героев наступили печальные будни: Сэм потерял Микаэлу, правительство выпускает законодательный акт о выселении Автоботов с Земли, а пока Мегатрон скрывается после позорного поражения Фоллена, десептикон Шокуэйв, правитель Кибертрона, готовится нанести визит нашей планете с совсем недобрыми намерениями. Действие заключительной части трилогии на этот раз охватит не только Землю, но и Луну, темная сторона которой хранит не менее темные тайны.



Дополнительная информация по релизу: Видео - не перекодировалось, глитчей при беглом просмотре не обнаружено, воспроизведение проверено на встроенных проигрывателях ТВ "Самсунг" и БД-плеера LG. Чэптера с БД - с внесенными правками касательно фреймрэйта.
Лого ТВ-канала отсутствует!
По поводу релиза. Качество вполне не плохое. Официальный релиз BluRay 3D был перенесен на конец января 2012 года. Кто не намерен ждать, можете смело качать!
"MediaInfo" ▼Формат : Matroska
Размер файла : 15,7 Гбайт
Продолжительность : 2 ч. 28 м.
Общий поток : 15,2 Мбит/сек
Дата кодирования : UTC 2011-12-14 15:34:53
Программа кодирования : mkvmerge v2.9.8 (Cest le bon) built on Aug 13 2009 12:49:06
Библиотека кодирования : libebml v0.7.7 + libmatroska v0.8.1
Обложка : Yes

Видео
Идентификатор : 1
Формат : AVC
Формат/Информация : Advanced Video Codec
Профиль формата : [email protected]
Параметр CABAC формата : Да
Параметр ReFrames формата : 4 кадры
Параметры GOP формата : M=1, N=24
Режим смешивания : Container [email protected]
Идентификатор кодека : V_MPEG4/ISO/AVC
Продолжительность : 2 ч. 28 м.
Битрейт : 11,2 Мбит/сек
Ширина : 1920 пикс.
Высота : 1080 пикс.
Соотношение сторон : 16:9
Частота кадров : 25,000 кадр/сек
Цветовое пространство : YUV
Подвыборка цветности : 4:2:0
Битовая глубина : 8 бит
Тип развёртки : Чересстрочная
Порядок развёртки : Верхнее поле первое
Бит/(Пиксели*Кадры) : 0.217
Размер потока : 11,6 Гбайт (74%)
Заголовок : BLUEBIRD_3D4ALL
Основные цвета : BT.709-5, BT.1361, IEC 61966-2-4, SMPTE RP177
Характеристики трансфера : BT.709-5, BT.1361
Коэффициенты матрицы : BT.709-5, BT.1361, IEC 61966-2-4 709, SMPTE RP177

Аудио #1
Идентификатор : 2
Формат : AC-3
Формат/Информация : Audio Coding 3
Расширение режима : CM (complete main)
Идентификатор кодека : A_AC3
Продолжительность : 2 ч. 28 м.
Вид битрейта : Постоянный
Битрейт : 640 Кбит/сек
Канал(ы) : 6 канала(ов)
Расположение каналов : Front: L C R, Side: L R, LFE
Частота : 48,0 КГц
Битовая глубина : 16 бит
Метод сжатия : С потерями
Задержка видео : -120 мс.
Размер потока : 678 Мбайт (4%)
Заголовок : Дубляж DD 5.1 640 kbps
Язык : Russian

Аудио #2
Идентификатор : 3
Формат : DTS
Формат/Информация : Digital Theater Systems
Идентификатор кодека : A_DTS
Продолжительность : 2 ч. 28 м.
Вид битрейта : Постоянный
Битрейт : 1510 Кбит/сек
Канал(ы) : 6 канала(ов)
Расположение каналов : Front: L C R, Side: L R, LFE
Частота : 48,0 КГц
Битовая глубина : 24 бит
Метод сжатия : С потерями
Задержка видео : -120 мс.
Размер потока : 1,56 Гбайт (10%)
Заголовок : Многоголосый - BBS Saint Petersburg DTS 5.1 1536 kbps
Язык : Russian

Аудио #3
Идентификатор : 4
Формат : DTS
Формат/Информац
8aef99c34042c5201fd86995d92af4f3abf0343c[3D] Трансформеры 3: Темная сторона Луны 3д / Transformers: Dark of the Moon 3D (Майкл Бэй/Michael Bay, фантастика, боевик, 2011) [HDTV, Профессиональный (дублированный)][Горизонтальная анаморфная стереопара] [3D] Трансформеры 3: Темная сторона Луны 3д / Transformers: Dark of the Moon 3D (Майкл Бэй/Michael Bay, фантастика, боевик, 2011) [HDTV, Профессиональный (дублированный)][Горизонтальная анаморфная стереопара] " />

Аплоадер: Админ, дата: 17-12-2011, 12:00, торрент скачан: 359 раз

Понравилась раздача? Посмотрите эти:
  • Трансформеры 3: Тёмная сторона Луны / Transformers: Dark of the Moon (Майкл ...
  • Трансформеры 3: Темная сторона Луны / Transformers: Dark of the Moon (Майкл ...
  • Трансформеры 3: Тёмная сторона Луны / Transformers: Dark of the Moon (Майкл ...
  • Трансформеры 3: Тёмная сторона Луны / Transformers: Dark of the Moon (Майкл ...
  • Трансформеры 3: Тёмная сторона Луны / Transformers: Dark of the Moon (Майкл ...
  • [3D] Трансформеры 3: Темная сторона Луны 3д / Transformers: Dark of the Moo ...
  • Трансформеры 3: Тёмная сторона Луны / Transformers: Dark of the Moon (Майкл ...
  • Трансформеры 3: Тёмная сторона Луны / Transformers: Dark of the Moon (Майкл ...
  • Трансформеры 3: Тёмная сторона Луны / Transformers: Dark of the Moon (Майкл ...
  • Трансформеры 3: Тёмная сторона Луны / Transformers: Dark of the Moon (Майкл ...
  • Трансформеры 3: Темная сторона Луны / Transformers: Dark of the Moon (Майкл ...
  • Трансформеры 3: Тёмная сторона Луны / Transformers: Dark of the Moon (Майкл ...
  • Трансформеры 3: Тёмная сторона Луны / Transformers: Dark of the Moon (Майкл ...
  • Трансформеры 3: Тёмная сторона Луны / Transformers 3: Dark of the Moon (Май ...
  • Трансформеры 3: Тёмная сторона Луны / Transformers: Dark of the Moon (Майкл ...
  • Трансформеры 3: Тёмная сторона Луны / Transformers: Dark of the Moon (Майкл ...
  • Трансформеры 3: Тёмная сторона Луны / Transformers: Dark of the Moon (Майкл ...
  • Трансформеры 3: Тёмная сторона Луны / Transformers: Dark of the Moon (Майкл ...
  • Трансформеры 3:Тёмная сторона Луны/Transformers:Dark of the Moon (фантастик ...
  • Трансформеры 3: Тёмная сторона Луны / Transformers: Dark of the Moon (Майкл ...
  • Информация
    Посетители, находящиеся в группе Гости, не могут оставлять комментарии к данной публикации.