вход на сайт

Имя пользователя :
Пароль :

Восстановление пароля Регистрация
[3Д] Территория тьмы 3Д / Dark Country 3D (Томас Джейн,Триллер, детектив,2009) [ BDRip, Профессиональный (дублированный)],[Half SideBySide / Горизонтальная анаморфная стереопара]
Рейтинг:
(голосов: 1)



[img]{THEME}/images/logopost.png[/img]



Территория тьмы 3Д / Dark Country 3D

Год выпуска: 2009
Страна: США
Производство: Hyde Park Films
Жанр: Триллер, детектив

Режиссёр: Томас Джейн / Thomas Jane
В ролях: Томас Джейн, Лорен Джерман, Рон Перлман , Крис Браунинг, Кон Шелл, Хезер Хэйс, Никки Келли, Джонатан Ланд

Перевод: Профессиональный (дублированный)
Субтитры: нет

Описание:Парочка молодоженов, Джина и Ричард, во время ночной поездки через пустыню сбивают мужчину. Подобрав раненого, влюбленные едут за помощью, но очнувшийся пассажир набрасывается на них…

IMDB: рейтинг5.20(2 019)
КиноПоиск: рейтинг 4.894(1 804)

Качество: BDRip
Продолжительность: 01:28:07 час.

Формат: MKV
Формат 3D : Half SideBySide / Горизонтальная анаморфная стереопара
Видео кодек:x.264
Аудио кодек:DTS
Видео:AVC 1920x1080p 23.976 fps 9841 Kbps
Аудио 1 :Russian : DTS 48000Hz 6ch 1510kbps
Аудио 2 :English : DTS 48000Hz 6ch 1510kbps

MediaInfo ▼ Format : Matroska
File size : 8.08 GiB
Duration : 1h 28mn
Overall bit rate : 13.1 Mbps
Encoded date : UTC 2011-04-02 17:22:14
Writing application : mkvmerge v2.9.7 (Tenderness) built on Jul 1 2009 18:43:35
Writing library : libebml v0.7.7 + libmatroska v0.8.1

Video
ID : 1
Format : AVC
Format/Info : Advanced Video Codec
Format profile : [email protected]
Format settings, CABAC : Yes
Format settings, ReFrames : 4 frames
Format settings, GOP : M=4, N=32
Muxing mode : Container [email protected]
Codec ID : V_MPEG4/ISO/AVC
Duration : 1h 28mn
Bit rate : 9 841 Kbps
Width : 1 920 pixels
Height : 1 080 pixels
Display aspect ratio : 16:9
Frame rate : 23.976 fps
Color space : YUV
Chroma subsampling : 4:2:0
Bit depth : 8 bits
Scan type : Progressive
Bits/(Pixel*Frame) : 0.198
Stream size : 6.06 GiB (75%)
Writing library : x264 core 114 r1924 08d04a4
Encoding settings : cabac=1 / ref=4 / deblock=1:-1:-1 / analyse=0x3:0x113 / me=umh / subme=9 / psy=1 / psy_rd=1.00:0.15 / mixed_ref=1 / me_range=16 / chroma_me=1 / trellis=1 / 8x8dct=1 / cqm=0 / deadzone=21,11 / fast_pskip=1 / chroma_qp_offset=-3 / threads=18 / sliced_threads=0 / nr=0 / decimate=1 / interlaced=0 / constrained_intra=0 / bframes=3 / b_pyramid=2 / b_adapt=1 / b_bias=0 / direct=3 / weightb=1 / open_gop=0 / weightp=2 / keyint=250 / keyint_min=23 / scenecut=40 / intra_refresh=0 / rc_lookahead=40 / rc=crf / mbtree=1 / crf=16.0 / qcomp=0.60 / qpmin=10 / qpmax=69 / qpstep=4 / ip_ratio=1.40 / aq=1:1.00
Language : English

Audio #1
ID : 2
Format : DTS
Format/Info : Digital Theater Systems
Codec ID : A_DTS
Duration : 1h 28mn
Bit rate mode : Constant
Bit rate : 1 510 Kbps
Channel(s) : 6 channels
Channel positions : Front: L C R, Side: L R, LFE
Sampling rate : 48.0 KHz
Bit depth : 24 bits
Video delay : 862ms
Stream size : 952 MiB (12%)
Language : Russian

Audio #2
ID : 3
Format : DTS
Format/Info : Digital Theater Systems
Codec ID : A_DTS
Duration : 1h 28mn
Bit rate mode : Constant
Bit rate : 1 510 Kbps
Channel(s) : 6 channels
Channel positions : Front: L C R, Side: L R, LFE
Sampling rate : 48.0 KHz
Bit depth : 24 bits
Stream size : 952 MiB (12%)
Language : English



87b7012c3d3381b20add2f606d2a2ecd689484b9[3Д] Территория тьмы 3Д / Dark Country 3D (Томас Джейн,Триллер, детектив,2009) [ BDRip, Профессиональный (дублированный)],[Half SideBySide / Горизонтальная анаморфная стереопара] [3Д] Территория тьмы 3Д / Dark Country 3D (Томас Джейн,Триллер, детектив,2009) [ BDRip, Профессиональный (дублированный)],[Half SideBySide / Горизонтальная анаморфная стереопара] " />

Аплоадер: Админ, дата: 12-11-2011, 00:21, торрент скачан: 359 раз

Понравилась раздача? Посмотрите эти:
  • [3D] Обитель Зла: Проклятие / Biohazard: Damnation (Макото Камия, мультфиль ...
  • Территория тьмы / Dark Country (Томас Джейн / Thomas Jane, триллер, кримина ...
  • [3D] Пираньи 3Д / Piranha 3D (Александр Ажа / Alexandre Aja, ужасы, боевик, ...
  • [3D] Бой за звание чемпиона мира в супертяжелом весе по версии WBA / David ...
  • [3D] Пункт назначения 4 3Д / The Final Destination 3D (Дэвид Р. Эллис / Dav ...
  • [3D] Путешествие к Центру Земли 3Д / Journey to the Center of the Earth 3D ...
  • [3D] Тайна красной планеты / Mars Needs Moms (Саймон Уэллс, мультфильм, фан ...
  • [3D] Ролики для сравнения вертикальных и горизонтального анаморфов (Тест, 2 ...
  • [3D] Дикий океан 3D / Wild Ocean 3D (Люк Крессвелл, Стив МакНиколас, Докуме ...
  • [3D] Гарри Поттер и Дары Смерти: часть 2 / Harry Potter and the Deathly Hal ...
  • [3D] Шаг вперед 3D / Step Up 3D (Джон М. Чу, мелодрама, драма, музыка, 2010 ...
  • [3D] Кот и цыплёнок / I Tawt I Taw а Puddy Tat (Мэттью ОКаллаган / Matthew ...
  • [3D] Иудейский лев 3Д / The Lion Of Judah 3D (Дерек Брум, Роджер Хоукинс / ...
  • [3D] Другой мир: Пробуждение / Underworld: Awakening (Манс Марлинд , Ужасы ...
  • [3D] Глаз ребенка / Childs Eye (Оксид Пан, ужасы, 2010) [BDRip, Дублированн ...
  • [3D] Мой кровавый Валентин / My Bloody Valentine (Патрик Люссье, ужасы, три ...
  • [3D] Зов предков / Call of the Wild (Ричард Габай, драма, приключения, семе ...
  • Территория тьмы / Dark Country (Томас Джейн, триллер, детектив, 2010 г.) [D ...
  • [3D]TOP GIRL 3D (Музыкальный клип демонстрирующий 3Д эффекты с максимальным ...
  • [3D] Тёмный мир (Антон Мегердичев, Фэнтези, триллер, 2010) [BD Rip 1080p, О ...
  • Информация
    Посетители, находящиеся в группе Гости, не могут оставлять комментарии к данной публикации.