вход на сайт

Имя пользователя :
Пароль :

Восстановление пароля Регистрация
[3D] Путешествие к Центру Земли 3Д / Journey to the Center of the Earth 3D (Эрик Бревиг / Eric Brevig, Приключения, Фантастика,2008) [BDrip-AVC, Профессиональный (двухголосый закадровый)][ Half SideBySide / Горизонтальная анаморфная стереопара]
Рейтинг:
(голосов: 1)



[img]{THEME}/images/logopost.png[/img]



Путешествие к Центру Земли 3Д / Journey to the Center of the Earth 3D

Год выпуска: 2008
Страна: США
Производство: New Line Cinema
Жанр: Приключения, Фантастика, Семейный

Режиссёр: Эрик Бревиг / Eric Brevig
В ролях: Брендан Фрейзер, Джош Хатчерсон, Анита Брием, Сет Майерс, Жан Мишель Паре, Джейн Вилер, Фрэнк Фонтейн, Джанкарло Кальтабиано, Каньехтио Хорн, Гарт Гилкер

Перевод: Профессиональный (двухголосный закадровый)
Озвучка: LostFilm
Субтитры: Отсутствуют

Описание: Экранизация одноименного романа Жюль Верна. Действие перенесено в день нынешний. Чудаковатый профессор Андерсон (Брендан Фрейзер), поднятый на смех коллегами за свои эксцентричные теории, путешествует с племянником по Исландии, где находит пещеру, ведущую в недра Земли. В недрах перед путешественниками открывается удивительный подземный мир, населенный опасными и странными созданиями...

Дополнительная информация по релизу: Стереопара "восстановлена" из БД-анаглифа и БД 2д, подручными средствами, без использования специализированных де-анаглиф программ. Имеется неизбежный разбаланс цветов-яркостей между ракурсами и местами гхосты. 3д - хорошее, с вылетами.
Прежде чем качать, хорошенько просмотрите скрины и сэмпл, чтобы потом не было претензий к качеству!

сэмпл!

IMDB: рейтинг 6.00 (18 787)
КиноПоиск: рейтинг 6.859 (3293))

"MediaInfo" ▼General
Format : Matroska
File size : 5.87 GiB
Duration : 1h 32mn
Overall bit rate : 9 070 Kbps
Movie name : Journey to the Center of the Earth (de-anagliph by ash61)
Encoded date : UTC 2011-09-27 07:47:37
Writing application : mkvmerge v3.4.0 (Rapunzel) сборка от May 15 2010 09:38:20
Writing library : libebml v0.8.0 + libmatroska v0.9.0

Video
ID : 1
Format : AVC
Format/Info : Advanced Video Codec
Format profile : [email protected]
Format settings, CABAC : Yes
Format settings, ReFrames : 4 frames
Codec ID : V_MPEG4/ISO/AVC
Duration : 1h 32mn
Bit rate : 7 801 Kbps
Width : 1 920 pixels
Height : 1 080 pixels
Display aspect ratio : 16:9
Frame rate : 23.976 fps
Color space : YUV
Chroma subsampling : 4:2:0
Bit depth : 8 bits
Scan type : Progressive
Bits/(Pixel*Frame) : 0.157
Stream size : 5.05 GiB (86%)
Title : Восстановлено из анаглифа by ash61
Writing library : x264 core 112 r1867 22bfd31
Encoding settings : cabac=1 / ref=4 / deblock=1:-1:-1 / analyse=0x3:0x113 / me=umh / subme=9 / psy=1 / psy_rd=1.00:0.15 / mixed_ref=1 / me_range=16 / chroma_me=1 / trellis=2 / 8x8dct=1 / cqm=0 / deadzone=21,11 / fast_pskip=1 / chroma_qp_offset=-3 / threads=3 / sliced_threads=0 / nr=0 / decimate=1 / interlaced=0 / constrained_intra=0 / bframes=4 / b_pyramid=0 / b_adapt=2 / b_bias=0 / direct=3 / weightb=1 / open_gop=0 / weightp=2 / keyint=250 / keyint_min=23 / scenecut=40 / intra_refresh=0 / rc_lookahead=40 / rc=crf / mbtree=1 / crf=20.0 / qcomp=0.60 / qpmin=10 / qpmax=51 / qpstep=4 / vbv_maxrate=50000 / vbv_bufsize=50000 / crf_max=0.0 / nal_hrd=none / ip_ratio=1.40 / aq=1:1.00

Audio #1
ID : 2
Format : AC-3
Format/Info : Audio Coding 3
Mode extension : CM (complete main)
Codec ID : A_AC3
Duration : 1h 32mn
Bit rate mode : Constant
Bit rate : 448 Kbps
Channel(s) : 6 channels
Channel positions : Front: L C R, Side: L R, LFE
Sampling rate : 48.0 KHz
Bit depth : 16 bits
Compression mode : Lossy
Stream size : 297 MiB (5%)
Language : Russian

Audio #2
ID : 3
Format : AC-3
Format/Info : Audio Coding 3
Mode extension : CM (complete main)
Codec ID : A_AC3
Duration : 1h 32mn
Bit rate mode : Constant
Bit rate : 640 Kbps
Channel(s) : 6 channels
Channel positions : Front: L C R, Side: L R, LFE
Sampling rate : 48.0 KHz
Bit depth : 16 bits
Compression mode : Lossy
Stream size : 424 MiB (7%)
Language : English


Качество: BDrip (восстановлено из анаглифа)
Продолжительность: 01:32:34 часа

Формат 3D: Half Side
7f7ecce081b5eccbf12197fc83ea973698377d70[3D] Путешествие к Центру Земли 3Д / Journey to the Center of the Earth 3D (Эрик Бревиг / Eric Brevig, Приключения, Фантастика,2008) [BDrip-AVC, Профессиональный (двухголосый закадровый)][ Half SideBySide / Горизонтальная анаморфная стереопара] [3D] Путешествие к Центру Земли 3Д / Journey to the Center of the Earth 3D (Эрик Бревиг / Eric Brevig, Приключения, Фантастика,2008) [BDrip-AVC, Профессиональный (двухголосый закадровый)][ Half SideBySide / Горизонтальная анаморфная стереопара] " />

Аплоадер: Админ, дата: 28-10-2011, 17:01, торрент скачан: 359 раз

Понравилась раздача? Посмотрите эти:
  • Путешествие к Центру Земли / Journey to the Center of the Earth (Эрик Бреви ...
  • [3D] Обитель Зла: Проклятие / Biohazard: Damnation (Макото Камия, мультфиль ...
  • Путешествие к Центру Земли / Journey to the Center of the Earth 3D (Эрик Бр ...
  • [3D] Гибрид в 3Д / Hybrid 3D (Эрик Валетт / Eric Valette) [2010, Триллер, У ...
  • [3D] Пункт назначения 4 3Д / The Final Destination 3D (Дэвид Р. Эллис / Dav ...
  • [3D] Первый мститель 3Д / Captain America: The First Avenger 3D (Джо Джонст ...
  • [3Д] Территория тьмы 3Д / Dark Country 3D (Томас Джейн,Триллер, детектив,20 ...
  • [3D] Тайна красной планеты / Mars Needs Moms (Саймон Уэллс, мультфильм, фан ...
  • [3D] Крылатые монстры 3Д / Flying Monsters 3D (Мэттью Диас, Документальны ...
  • [3D] Гарри Поттер и Дары Смерти: часть 2 / Harry Potter and the Deathly Hal ...
  • [3D] Panasonic Demo Disc 3D 2010-2011 [BDrip-AVC 1080p-720p][Оригинал][Anam ...
  • [3D] Шаг вперед 3D / Step Up 3D (Джон М. Чу, мелодрама, драма, музыка, 2010 ...
  • [3D] Кот и цыплёнок / I Tawt I Taw а Puddy Tat (Мэттью ОКаллаган / Matthew ...
  • [3D] Гибрид / Hybrid (Эрик Валетт / Eric Valette, Триллер, Ужасы, 2010) [BD ...
  • [3D] Глаз ребенка / Childs Eye (Оксид Пан, ужасы, 2010) [BDRip, Дублированн ...
  • [3D] Мой кровавый Валентин / My Bloody Valentine (Патрик Люссье, ужасы, три ...
  • [3D] Чудеса океана в 3Д / Ocean Wonderland 3D (Жан-Жак Мантелло / Jean-Jacq ...
  • [3D] Непристойное кино 3Д / Sex Pot 3D ( Эрик Форсберг / Eric Forsberg, Ко ...
  • [3D] Люди в черном 3 / Men in Black III (Барри Зонненфельд, Фантастика, бое ...
  • Путешествие к Центру Земли / Journey to the Center of the Earth (Эрик Бреви ...
  • Mylene Farmer / Du Temps [2011, Pop, HDTVRip]
  • Mylene Farmer / Bleu Noir [2011, Pop, HDTVRip]
  • Путешествие к Центру Земли / Journey to the Center of the Earth (Эрик Бреви ...
  • Путешествие к Центру Земли / Journey to the Center of the Earth (Эрик Бреви ...
  • [3D] Путешествие к Центру Земли 3Д / Journey to the Center of the Earth 3D ...
  • Информация
    Посетители, находящиеся в группе Гости, не могут оставлять комментарии к данной публикации.