вход на сайт

Имя пользователя :
Пароль :

Восстановление пароля Регистрация
[3D] Первый мститель 3Д / Captain America: The First Avenger 3D (Джо Джонстон / Joe Johnston, Приключения,2011) [BDrip-AVC, Профессиональный (дублированный)][ Half OverUnder / Вертикальная анаморфная стереопара]
Рейтинг:
(голосов: 1)



[img]{THEME}/images/logopost.png[/img]



Первый мститель 3Д / Captain America: The First Avenger 3D

Год выпуска: 2011
Страна: США
Производство: Marvel Enterprises, Marvel Entertainment, Marvel Studios Inc.
Жанр: Фантастика, Боевик, Приключения

Режиссёр: Джо Джонстон / Joe Johnston
В ролях: Крис Эванс, Томми Ли Джонс, Хьюго Уивинг, Доминик Купер, Нил МакДонаф, Дерек Люк, Стенли Туччи, Хейли Этвелл, Себастиан Стэн, Ричард Армитэдж, Сэмюэл Л. Джексон, Тоби Джонс

Перевод: Профессиональный (дублированный)
Озвучка: Даниил Эльдаров, Михаил Георгиу, Александр Груздев, Дмитрий Поляновский, Пётр Иващенко, Никита Прозоровский, Анастасия Нестеренко, Илья Бледный, Василий Дахненко, Владимир Антоник, Сергей Балабанов
Субтитры: внешние srt: Русские форсированные (включены по умолчанию), русские полные, английские полные

Описание: Стив Роджерс добровольно соглашается принять участие в эксперименте, который превратит его в супер солдата, известного как Первый мститель. Роджерс вступает в вооруженные силы США вместе с Баки Барнсом и Пегги Картер, чтобы бороться с враждебной организацией ГИДРА, которой управляет безжалостный Красный Череп.

IMDB: рейтинг 7.10 (61 930)
КиноПоиск: рейтинг 6.46 (14 510)

сэмпл!

"MediaInfo" ▼General
Format : Matroska
File size : 12.1 GiB
Duration : 2h 4mn
Overall bit rate : 13.9 Mbps
Movie name : Captain America: The First Avenger
Encoded date : UTC 2011-10-20 08:39:17
Writing application : mkvmerge v3.4.0 (Rapunzel) сборка от May 15 2010 09:38:20
Writing library : libebml v0.8.0 + libmatroska v0.9.0

Video
ID : 1
Format : AVC
Format/Info : Advanced Video Codec
Format profile : [email protected]
Format settings, CABAC : Yes
Format settings, ReFrames : 4 frames
Codec ID : V_MPEG4/ISO/AVC
Duration : 2h 4mn
Bit rate : 12.4 Mbps
Width : 1 920 pixels
Height : 1 080 pixels
Display aspect ratio : 16:9
Frame rate : 23.976 fps
Color space : YUV
Chroma subsampling : 4:2:0
Bit depth : 8 bits
Scan type : Progressive
Bits/(Pixel*Frame) : 0.249
Stream size : 10.7 GiB (89%)
Writing library : x264 core 113 r1884 7313bb5
Encoding settings : cabac=1 / ref=4 / deblock=1:-3:-3 / analyse=0x3:0x113 / me=umh / subme=9 / psy=1 / psy_rd=1.00:0.15 / mixed_ref=1 / me_range=16 / chroma_me=1 / trellis=2 / 8x8dct=1 / cqm=0 / deadzone=21,11 / fast_pskip=1 / chroma_qp_offset=-3 / threads=3 / sliced_threads=0 / nr=0 / decimate=1 / interlaced=0 / constrained_intra=0 / bframes=6 / b_pyramid=2 / b_adapt=2 / b_bias=0 / direct=3 / weightb=1 / open_gop=0 / weightp=2 / keyint=250 / keyint_min=23 / scenecut=40 / intra_refresh=0 / rc_lookahead=60 / rc=crf / mbtree=1 / crf=18.0 / qcomp=0.70 / qpmin=0 / qpmax=69 / qpstep=4 / ip_ratio=1.40 / aq=1:1.00

Audio #1
ID : 2
Format : AC-3
Format/Info : Audio Coding 3
Mode extension : CM (complete main)
Codec ID : A_AC3
Duration : 2h 4mn
Bit rate mode : Constant
Bit rate : 640 Kbps
Channel(s) : 6 channels
Channel positions : Front: L C R, Side: L R, LFE
Sampling rate : 48.0 KHz
Bit depth : 16 bits
Compression mode : Lossy
Stream size : 569 MiB (5%)
Title : Дубляж
Language : Russian

Audio #2
ID : 3
Format : AC-3
Format/Info : Audio Coding 3
Mode extension : CM (complete main)
Codec ID : A_AC3
Duration : 2h 4mn
Bit rate mode : Constant
Bit rate : 640 Kbps
Channel(s) : 6 channels
Channel positions : Front: L C R, Side: L R, LFE
Sampling rate : 48.0 KHz
Bit depth : 16 bits
Compression mode : Lossy
Stream size : 569 MiB (5%)
Language : English

Menu
00:00:00.000 : :01
00:08:12.158 : :02
00:14:56.813 : :03
00:24:21.543 : :04
00:30:39.129 : :05
00:38:39.859 : :06
00:45:52.166 : :07
00:51:58.157 : :08
00:57:55.639 : :09
01:03:59.294 : :10
01:12:22.588 : :11
01:19:10.663 : :12
01:28:27.052 : :13
01:33:53.002 : :14
01:42:20.343 : :15
01:50:45.055 : :16
01:53:46.319 : :17
"Знаете ли Вы, что ....." ▼На пост режиссера «Капитана Америки» изначально был приглашен Джон Фавро, но он предпочел поработать над «Железным человеко
55ef8f8c00792bd8c6a5ba012fe0eedf037c36b0[3D] Первый мститель 3Д / Captain America: The First Avenger 3D (Джо Джонстон / Joe Johnston, Приключения,2011) [BDrip-AVC, Профессиональный (дублированный)][ Half OverUnder / Вертикальная анаморфная стереопара] [3D] Первый мститель 3Д / Captain America: The First Avenger 3D (Джо Джонстон / Joe Johnston, Приключения,2011) [BDrip-AVC, Профессиональный (дублированный)][ Half OverUnder / Вертикальная анаморфная стереопара] " />

Аплоадер: Админ, дата: 22-10-2011, 19:02, торрент скачан: 359 раз

Понравилась раздача? Посмотрите эти:
  • Первый мститель / Captain America: The First Avenger (Джо Джонстон, Фантаст ...
  • [3D] Первый мститель / Captain America: The First Avenger (Джо Джонстон / J ...
  • Первый мститель / Captain America: The First Avenger (Джо Джонстон, Фантаст ...
  • Первый мститель / Captain America: The First Avenger (Джо Джонстон , фантас ...
  • Первый мститель / Captain America: The First Avenger (Джо Джонстон,фантасти ...
  • Первый мститель / Captain America: The First Avenger (Джо Джонстон / Фантас ...
  • Первый мститель / Captain America: The First Avenger (Джо Джонстон , фантас ...
  • [3D] Гибрид в 3Д / Hybrid 3D (Эрик Валетт / Eric Valette) [2010, Триллер, У ...
  • [3D] Пункт назначения 4 3Д / The Final Destination 3D (Дэвид Р. Эллис / Dav ...
  • [3D] На Глубине 3Д / Into the Deep 3D (Ховард Холл / Howard Hall, документа ...
  • [3D]Конан-варвар в 3Д / Conan the Barbarian 3D (Маркус Ниспел / Marcus Nisp ...
  • [3D] Тайна красной планеты / Mars Needs Moms (Саймон Уэллс, мультфильм, фан ...
  • [3D] Кунг-фу Панда 2 3Д / Kung Fu Panda 2 3D (Дженнифер Ю / Jennifer Yuh, м ...
  • [3D] Крылатые монстры 3Д / Flying Monsters 3D (Мэттью Диас, Документальны ...
  • [3D] Кот и цыплёнок / I Tawt I Taw а Puddy Tat (Мэттью ОКаллаган / Matthew ...
  • [3D] Глаз ребенка / Childs Eye (Оксид Пан, ужасы, 2010) [BDRip, Дублированн ...
  • [3D] Мой кровавый Валентин / My Bloody Valentine (Патрик Люссье, ужасы, три ...
  • [3D] Миссия Дарвина / G-Force 3D (Хойт Йетмен, мультфильм, фэнтези, боевик, ...
  • Первый мститель / Captain America: The First Avenger (Джо Джонстон, Фэнтези ...
  • Первый мститель / Captain America: The First Avenger (Джо Джонстон, фантаст ...
  • Первый мститель / Captain America: The First Avenger (Джо Джонстон, Фантаст ...
  • Первый мститель / Captain America: The First Avenger (Джо Джонстон, фантаст ...
  • [3D] Капитан америка: Первый мститель / Captain America: The First Avenger ...
  • Первый мститель / Captain America: The First Avenger (Джо Джонстон, фантаст ...
  • Первый мститель / Captain America: The First Avenger (Джо Джонстон, Фантаст ...
  • Информация
    Посетители, находящиеся в группе Гости, не могут оставлять комментарии к данной публикации.