вход на сайт

Имя пользователя :
Пароль :

Восстановление пароля Регистрация
[3D] Пункт назначения 4 3Д / The Final Destination 3D (Дэвид Р. Эллис / David R. Ellis, ужасы, триллер, 2009) [BDrip-AVC, Профессиональный (дублированный)][ Half OverUnder / Вертикальная анаморфная стереопара]
Рейтинг:
(голосов: 1)



[img]{THEME}/images/logopost.png[/img]



Пункт назначения 4 3D/ The Final Destination 4 3D

Год выпуска: 2009
Страна: США
Производство: FlipZide Pictures, New Line Cinema, Practical Pictures
Жанр: ужасы, триллер


Режиссер: Дэвид Р. Эллис / David R. Ellis
В ролях: Бобби Кампо, Шантель Ван Сантен, Ник Зано, Хейли Уэбб, Майкелти Уильямсон, Криста Аллен, Эндрю Фисцелла, Джастин Велборн...

Перевод: Профессиональный (дублированный)
Субтитры: нет

Описание: История на этот раз вращается вокруг Ника О`Бэннона, к молодому человеку приходит видение — на автогонках произойдет ужасная трагедия, жертвами которой станут его друзья и он сам. Как и прежде группе счастливчиков, благодаря Нику, удается выжить, но смерть вовсе не спешит вычеркивать их из своего списка.

сэмпл!

IMDB: рейтинг 5.00 (14,114)
КиноПоиск: рейтинг 5.440 (7.078)


"MediaInfo" ▼General
Format : Matroska
File size : 9.22 GiB
Duration : 1h 21mn
Overall bit rate : 16.1 Mbps
Movie name : Final Destination 4 - 3D
Encoded date : UTC 2011-08-10 08:22:43
Writing application : mkvmerge v3.4.0 (Rapunzel) сборка от May 15 2010 09:38:20
Writing library : libebml v0.8.0 + libmatroska v0.9.0

Video
ID : 1
Format : AVC
Format/Info : Advanced Video Codec
Format profile : [email protected]
Format settings, CABAC : Yes
Format settings, ReFrames : 4 frames
Codec ID : V_MPEG4/ISO/AVC
Duration : 1h 21mn
Bit rate : 14.7 Mbps
Width : 1 920 pixels
Height : 1 080 pixels
Display aspect ratio : 16:9
Frame rate : 23.976 fps
Color space : YUV
Chroma subsampling : 4:2:0
Bit depth : 8 bits
Scan type : Progressive
Bits/(Pixel*Frame) : 0.296
Stream size : 8.42 GiB (91%)
Writing library : x264 core 113 r1884 7313bb5
Encoding settings : cabac=1 / ref=4 / deblock=1:-3:-3 / analyse=0x3:0x113 / me=umh / subme=9 / psy=1 / psy_rd=1.00:0.15 / mixed_ref=1 / me_range=16 / chroma_me=1 / trellis=2 / 8x8dct=1 / cqm=0 / deadzone=21,11 / fast_pskip=1 / chroma_qp_offset=-3 / threads=3 / sliced_threads=0 / nr=0 / decimate=1 / interlaced=0 / constrained_intra=0 / bframes=6 / b_pyramid=2 / b_adapt=2 / b_bias=0 / direct=3 / weightb=1 / open_gop=0 / weightp=2 / keyint=250 / keyint_min=23 / scenecut=40 / intra_refresh=0 / rc_lookahead=60 / rc=crf / mbtree=1 / crf=18.0 / qcomp=0.70 / qpmin=1 / qpmax=51 / qpstep=4 / ip_ratio=1.40 / aq=1:1.00

Audio #1
ID : 2
Format : AC-3
Format/Info : Audio Coding 3
Mode extension : CM (complete main)
Codec ID : A_AC3
Duration : 1h 21mn
Bit rate mode : Constant
Bit rate : 448 Kbps
Channel(s) : 6 channels
Channel positions : Front: L C R, Side: L R, LFE
Sampling rate : 48.0 KHz
Bit depth : 16 bits
Compression mode : Lossy
Stream size : 262 MiB (3%)
Language : Russian

Audio #2
ID : 3
Format : AC-3
Format/Info : Audio Coding 3
Mode extension : CM (complete main)
Codec ID : A_AC3
Duration : 1h 21mn
Bit rate mode : Constant
Bit rate : 640 Kbps
Channel(s) : 6 channels
Channel positions : Front: L C R, Side: L R, LFE
Sampling rate : 48.0 KHz
Bit depth : 16 bits
Compression mode : Lossy
Stream size : 375 MiB (4%)
Language : English

Menu
00:00:00.000 : :01
00:04:00.282 : :02
00:06:42.152 : :03
00:11:29.230 : :04
00:12:57.652 : :05
00:17:40.309 : :06
00:21:32.791 : :07
00:23:36.081 : :08
00:26:50.651 : :09
00:29:12.376 : :10
00:32:49.134 : :11
00:36:03.328 : :12
00:39:14.978 : :13
00:43:37.198 : :14
00:47:01.027 : :15
00:50:05.044 : :16
00:55:22.611 : :17
00:59:46.249 : :18
01:01:22.846 : :19
01:05:43.940 : :20
01:08:18.094 : :21
01:09:55.942 : :22
01:13:33.701 : :23
01:16:35.049 : :24

Качество: BDrip
Продолжительность: 01:21:46 часа

Контейнер: MKV
Формат 3D: Half OverUnder / Вертикальная анаморфная стереопара
Порядок ракурсов: левый ракурс первый
Видео кодек: x264
Аудио кодек: AC3
Видео: AVC / 1920х1080p / 23,976 fps / 14.7 Mbps
Аудио #1: Русский / AC3 / 48 KHz / 5.1 ch / 448 Kbps
Аудио #2: Английский / AC3 / 48 KHz / 5.1 ch / 640 Kbps



39748881de27dab6192e02dd54654e55c3f16fc4[3D] Пункт назначения 4 3Д / The Final Destination 3D (Дэвид Р. Эллис / David R. Ellis, ужасы, триллер, 2009) [BDrip-AVC, Профессиональный (дублированный)][ Half OverUnder / Вертикальная анаморфная стереопара] [3D] Пункт назначения 4 3Д / The Final Destination 3D (Дэвид Р. Эллис / David R. Ellis, ужасы, триллер, 2009) [BDrip-AVC, Профессиональный (дублированный)][ Half OverUnder / Вертикальная анаморфная стереопара] " />

Аплоадер: Админ, дата: 8-10-2011, 13:44, торрент скачан: 359 раз

Понравилась раздача? Посмотрите эти:
  • Пункт назначения 4 в 3D / The Final Destination IV 3D(Дэвид Р. Эллис, ужас ...
  • [3D] Гибрид в 3Д / Hybrid 3D (Эрик Валетт / Eric Valette) [2010, Триллер, У ...
  • [3D] Первый мститель 3Д / Captain America: The First Avenger 3D (Джо Джонст ...
  • [3D] На Глубине 3Д / Into the Deep 3D (Ховард Холл / Howard Hall, документа ...
  • [3D]Конан-варвар в 3Д / Conan the Barbarian 3D (Маркус Ниспел / Marcus Nisp ...
  • [3D] Тайна красной планеты / Mars Needs Moms (Саймон Уэллс, мультфильм, фан ...
  • [3D] Кунг-фу Панда 2 3Д / Kung Fu Panda 2 3D (Дженнифер Ю / Jennifer Yuh, м ...
  • [3D] LG Demo Disc 3D (Демо, 2011) [BDrip-AVC 1080p ][Оригинал][Anamorph Ov ...
  • [3D] Крылатые монстры 3Д / Flying Monsters 3D (Мэттью Диас, Документальны ...
  • [3D] Титаник 3Д трейлер / Titanic 3d Trailer [DCPrip-AVC, (дублированный Ру ...
  • [3D] Panasonic Demo Disc 3D 2010-2011 [BDrip-AVC 1080p-720p][Оригинал][Anam ...
  • [3D] Пункт назначения 5 3Д / Final Destination 5 3D (Стивен Куэйл / Steven ...
  • [3D] Кот и цыплёнок / I Tawt I Taw а Puddy Tat (Мэттью ОКаллаган / Matthew ...
  • [3D] Гибрид / Hybrid (Эрик Валетт / Eric Valette, Триллер, Ужасы, 2010) [BD ...
  • [3D] Глаз ребенка / Childs Eye (Оксид Пан, ужасы, 2010) [BDRip, Дублированн ...
  • [3D] Мой кровавый Валентин / My Bloody Valentine (Патрик Люссье, ужасы, три ...
  • [3D] Чудеса океана в 3Д / Ocean Wonderland 3D (Жан-Жак Мантелло / Jean-Jacq ...
  • [3D] Лас-Вегас в 3Д / Las Vegas 3D (Benjamin Eicher, Timo Joh. Mayer, Докум ...
  • [3D] Кошмар перед Рождеством 3D / The Nightmare Before Christmas 3D (Генри ...
  • Пункт назначения 4 / The Final Destination (Дэвид Р Эллис, Ужасы, триллер, ...
  • Пункт назначения 4 / The Final Destination (Дэвид Р. Эллис, ужасы, триллер, ...
  • Пункт назначения 4 / The Final Destination (Дэвид Р. Эллис, Ужасы, триллер, ...
  • Пункт назначения 4 / The Final Destination (Дэвид Р. Эллис, Ужасы, триллер, ...
  • Пункт назначения 4 / The Final Destination (Дэвид Р. Эллис, ужасы, 2009) [H ...
  • Пункт назначения 4 / Final Destination 4 (Дэвид Р. Эллис / David R. Ellis, ...
  • Информация
    Посетители, находящиеся в группе Гости, не могут оставлять комментарии к данной публикации.