вход на сайт

Имя пользователя :
Пароль :

Восстановление пароля Регистрация
[3D] Аватар 3D / Avatar 3D (Джеймс Кэмерон / James Cameron, Фантастика, боевик, драма, приключения, 2009) [BDRip 1080p, Профессиональный (полное дублирование)]
Рейтинг:
(голосов: 1)



[img]{THEME}/images/logopost.png[/img]



Аватар 3Д / Avatar 3D

«Это новый мир»



Год выпуска: 2009
Страна: США, Великобритания
Жанр: фантастика, боевик, триллер, драма, приключения
Перевод: Профессиональный (полное дублирование)
Субтитры: Русские( речь Нави )

Режиссёр: Джеймс Кэмерон
В ролях: Сэм Уортингтон, Зои Салдана, Сигурни Уивер, Стивен Лэнг, Джоэль Мур, Джованни Рибизи, Мишель Родригес, Лас Алонсо, Уэс Студи, Си Си Эйч Паундер
: Джейк Салли — бывший морской пехотинец, прикованный к инвалидному креслу. Несмотря на немощное тело, Джейк в душе по-прежнему остается воином. Он получает задание совершить путешествие в несколько световых лет к базе землян на планете Пандора, где корпорации добывают редкий минерал, имеющий огромное значение для выхода Земли из энергетического кризиса.



IMDB:8.3/10 (272,853 голосов) Top 250: #128
КиноПоиск: 8.420 (100 681 голосов) Toп250: 52



Продолжительность: 02:41:41
Качество: BDrip 1080p
Формат: MKV
Формат 3D: Anaglyph / Анаглиф redcyan
Видео кодек:x264
Аудио кодек: AC3
Формат видео: MPEG4 Video (H264) 1920x1080 23.98fps14.6 Mbps
Формат аудио:
Аудио 1: Russian AC3 48000Hz 6ch 640 Kbps Аудио 2: English AC3 48000Hz 6ch 640 Kbps
"MediaInfo" ▼Format : Matroska
File size : 16.5 GiB
Duration : 2h 41mn
Overall bit rate : 14.6 Mbps
Encoded date : UTC 2010-11-10 12:04:30
Writing application : mkvmerge v2.9.7 (Tenderness) built on Jul 1 2009 18:43:35
Writing library : libebml v0.7.7 + libmatroska v0.8.1

Video
ID : 1
Format : AVC
Format/Info : Advanced Video Codec
Format profile : [email protected]
Format settings, CABAC : Yes
Format settings, ReFrames : 4 frames
Muxing mode : Container [email protected]
Codec ID : V_MPEG4/ISO/AVC
Duration : 2h 41mn
Bit rate : 13.0 Mbps
Width : 1 920 pixels
Height : 1 080 pixels
Display aspect ratio : 16:9
Frame rate : 23.976 fps
Color space : YUV
Chroma subsampling : 4:2:0
Bit depth : 8 bits
Scan type : Progressive
Bits/(Pixel*Frame) : 0.262
Stream size : 14.7 GiB (89%)
Writing library : x264 core 107 r1745+311 2317302
Encoding settings : cabac=1 / ref=4 / deblock=1:-3:-3 / analyse=0x3:0x113 / me=umh / subme=7 / psy=1 / fade_compensate=0.00 / psy_rd=1.00:0.15 / mixed_ref=1 / me_range=16 / chroma_me=1 / trellis=2 / 8x8dct=1 / cqm=0 / deadzone=21,11 / fast_pskip=1 / chroma_qp_offset=-3 / threads=6 / sliced_threads=0 / nr=0 / decimate=1 / interlaced=0 / constrained_intra=0 / fgo=0 / bframes=6 / b_pyramid=0 / b_adapt=2 / b_bias=0 / direct=3 / weightb=1 / open_gop=0 / weightp=2 / keyint=250 / keyint_min=23 / scenecut=40 / intra_refresh=0 / rc_lookahead=40 / rc=crf / mbtree=1 / crf=18.0 / qcomp=0.60 / qpmin=10 / qpmax=51 / qpstep=4 / ip_ratio=1.40 / aq=1:1.00
Language : English

Audio #1
ID : 2
Format : AC-3
Format/Info : Audio Coding 3
Mode extension : CM (complete main)
Codec ID : A_AC3
Duration : 2h 41mn
Bit rate mode : Constant
Bit rate : 640 Kbps
Channel(s) : 6 channels
Channel positions : Front: L C R, Side: L R, LFE
Sampling rate : 48.0 KHz
Bit depth : 16 bits
Stream size : 740 MiB (4%)
Language : Russian

Audio #2
ID : 3
Format : AC-3
Format/Info : Audio Coding 3
Mode extension : CM (complete main)
Codec ID : A_AC3
Duration : 2h 41mn
Bit rate mode : Constant
Bit rate : 640 Kbps
Channel(s) : 6 channels
Channel positions : Front: L C R, Side: L R, LFE
Sampling rate : 48.0 KHz
Bit depth : 16 bits
Stream size : 740 MiB (4%)
Language : English

Text
ID : 4
Format : UTF-8
Codec ID : S_TEXT/UTF8
Codec ID/Info : UTF-8 Plain Text
Language : Russian

Menu
00:00:00.000 : en:1. A New World
00:06:17.961 : en:2. You Are Not In Kansas Anymore
00:07:53.598 : en:3. "This is Your Avatar Now, Jake"
00:12:04.891 : en:4. "This Is Why Were Here..."
00:14:00.465 : en:5. First Awakening
00:20:00.574 : en:6. Colonel Quaritch
00:24:00.230 : en:7. First Sortie
00:26:53.278 : en:8. Thanator Chase
00:31:41.900 : en:9. A Sign
00:33:33.428 : en:10. Viperwolves
00:35:43.850 : en:11
91887f39fdf07ee6418d26e88e2142467e66e92f[3D] Аватар 3D / Avatar 3D (Джеймс Кэмерон / James Cameron, Фантастика, боевик, драма, приключения, 2009) [BDRip 1080p, Профессиональный (полное дублирование)] [3D] Аватар 3D / Avatar 3D (Джеймс Кэмерон / James Cameron, Фантастика, боевик, драма, приключения, 2009) [BDRip 1080p, Профессиональный (полное дублирование)] " />

Аплоадер: Админ, дата: 18-12-2010, 21:33, торрент скачан: 359 раз

Понравилась раздача? Посмотрите эти:
  • Аватар [Расширенная версия] / Avatar [EXTENDED] (Джеймс Кэмерон, фантастика ...
  • Аватар [Расширенная версия] / Avatar [Extended edition] (Джеймс Кэмерон, фа ...
  • Аватар / Avatar (Джеймс Кэмерон / James Cameron, Фантастика, боевик, трилле ...
  • Аватар / Avatar (Джеймс Кэмерон / James Cameron, Фантастика, боевик, трилле ...
  • Аватар [Расширенная версия] / Avatar [Extended edition] (Джеймс Кэмерон / J ...
  • Аватар [Расширенная версия] / Avatar [Extended Cut] (Джеймс Кэмерон, фантас ...
  • Аватар / Avatar [Театральная версия / Theatrical Cut] (Джеймс Кэмерон, фант ...
  • Аватар 3Д / Avatar 3D (Джеймс Кэмерон / James Cameron,фантастика, боевик, т ...
  • [3D] Аватар 3Д / Avatar 3D (James Cameron / Джеймс Кэмерон, Фантастика, Бое ...
  • [3D] Аватар 3Д / Avatar 3D (James Cameron / Джеймс Кэмерон, Фантастика, Бое ...
  • [3D] Аватар 3D + 2D / Avatar (Джеймс Кэмерон, Фантастика,Боевик,Приключения ...
  • Аватар / Avatar (Джеймс Кэмерон, Фантастика, Боевик, Триллер, Драма, Приклю ...
  • Аватар / Avatar (Джеймс Кэмерон / James Cameron, Фантастика, боевик, трилле ...
  • Аватар (Коллекционное Издание) / Avatar (Extended Collectors Cut)(Джеймс Кэ ...
  • Аватар [Расширенная версия] / Avatar [Extended edition] (Джеймс Кэмерон / J ...
  • Аватар / Avatar (Джеймс Кэмерон, боевик, приключения, фантастика, 2009) [BD ...
  • Аватар / Avatar (Джеймс Кэмерон, фантастика, боевик, триллер, драма, приклю ...
  • Аватар / Avatar (Джеймс Кэмерон, фантастика, боевик, драма, 2009) [BDRip (и ...
  • Аватар / Avatar [Джеймс Кэмерон, Фантастика, 2009] [HDRip, Дублированный]
  • Аватар / Avatar (Джеймс Кэмерон, фантастика, приключения, 2009) [DVD Rip, ...
  • Аватар / Avatar (Джеймс Кэмерон, фантастика, боевик, триллер, драма, приклю ...
  • Аватар / Avatar [Расширенная версия / Extended Cut] (Джеймс Кэмерон, Фантас ...
  • Аватар [Расширенная версия] / Avatar [Extended edition] (Джеймс Кэмерон / J ...
  • [3D] Аватар / Avatar (Джеймс Кэмерон / James Cameron, фантастика, боевик, д ...
  • [3D] Аватар 3Д / Avatar 3D (Джеймс Кэмерон / James Cameron) [2009 г., фанта ...
  • Информация
    Посетители, находящиеся в группе Гости, не могут оставлять комментарии к данной публикации.