вход на сайт

Имя пользователя :
Пароль :

Восстановление пароля Регистрация
[3D] Zомби каникулы (Кирилл Кемниц, Ужасы, триллер, комедия, 2013) [BDRip 1080p, Перевод не требуется] [Half OverUnder / Вертикальная анаморфная стереопара]
Рейтинг:
(голосов: 1)



[img]{THEME}/images/logopost.png[/img]



«Zомби каникулы»

¤НеКромантическая комедия¤

¤Информация о фильме¤
Год выпуска: 2013
Страна: Россия
Производство: RexMedia, New Wave Productions
Жанр: Ужасы, триллер, комедия

Режиссёр: Кирилл Кемниц / Kirill Kemnits
В ролях: Юлия Волкова, Михаил Ефремов, Антон Зиновьев, Ирина Хануник-Ромбальская, Александр Ефремов, Дарья Торчилина, Александр Левенчук, Ольга Доценко, Виолетта Нестерович, Валерий Зеленский

Перевод: не требуется
Субтитры: нет


Описание
¤ ¤ ¤
Группа молодых людей собирается на главную тусовку лета. Как и полагается, подготовка идёт полным ходом, но никто не догадывается, что судьба готовит им совершенно другую программу на афтепати. Оказавшись в эпицентре зомбоапокалипсиса, друзья обнаруживают, что «ходячие» охотятся только за теми, кто испытывает страх...
¤ ¤ ¤ - Зрителям, достигшим 18 лет



¤Тех.Данные¤
Качество: BDRip 1080p
Продолжительность: ~ 01:35:07 час.
Формат: MKV
Формат 3D: Half OverUnder / Вертикальная анаморфная стереопара
Порядок ракурсов: левый ракурс первый

Видео кодек: AVC
Аудио кодек: AC3
Видео: 1920x1080 (16:9), 23,976 fps, AVC [email protected] ~14,7 kbps avg, 0.296 bit/pix
Аудио: 48 kHz, AC3 Dolby Digital, 3/2 (L,C,R,l,r) + L,F,E ch, ~640 kbps

MediaInfo ▼TextОбщее
Уникальный идентификатор : 255115992577977234038313206747222127042 (0xBFED8D8D7674DED0AF8313B93D8631C2)
Полное имя : E:DownloadsZомби каникулы.2013.BDRip 1080p.mkv
Формат : Matroska
Версия формата : Version 2
Размер файла : 10,4 Гбайт
Продолжительность : 1 ч. 35 м.
Общий поток : 15,7 Мбит/сек
Название фильма : Zомби каникулы (2013) 3D
Дата кодирования : UTC 2013-09-07 18:08:05
Программа кодирования : mkvmerge v5.8.0 (No Sleep / Pillow) built on Sep 2 2012 15:37:04
Библиотека кодирования : libebml v1.2.3 + libmatroska v1.3.0

Видео
Идентификатор : 1
Формат : AVC
Формат/Информация : Advanced Video Codec
Профиль формата : [email protected]
Параметр CABAC формата : Да
Параметр ReFrames формата : 4 кадра
Идентификатор кодека : V_MPEG4/ISO/AVC
Продолжительность : 1 ч. 35 м.
Битрейт : 14,7 Мбит/сек
Ширина : 1920 пикселей
Высота : 1080 пикселей
Соотношение сторон : 16:9
Частота кадров : 23,976 кадра/сек
Цветовое пространство : YUV
Субдискретизация насыщенности : 4:2:0
Битовая глубина : 8 бит
Тип развёртки : Прогрессивная
Бит/(Пиксели*Кадры) : 0.296
Размер потока : 9,78 Гбайт (94%)
Заголовок : BDRip by Ash61
Библиотека кодирования : x264 core 129 r2245 bc13772
Настройки программы : cabac=1 / ref=4 / deblock=1:-3:-3 / analyse=0x3:0x113 / me=umh / subme=9 / psy=1 / psy_rd=1.00:0.15 / mixed_ref=1 / me_range=32 / chroma_me=1 / trellis=2 / 8x8dct=1 / cqm=0 / deadzone=21,11 / fast_pskip=1 / chroma_qp_offset=-3 / threads=12 / lookahead_threads=2 / sliced_threads=0 / nr=0 / decimate=1 / interlaced=0 / bluray_compat=0 / constrained_intra=0 / bframes=9 / b_pyramid=2 / b_adapt=2 / b_bias=0 / direct=3 / weightb=1 / open_gop=0 / weightp=2 / keyint=250 / keyint_min=23 / scenecut=40 / intra_refresh=0 / rc_lookahead=60 / rc=crf / mbtree=1 / crf=17.5 / qcomp=0.70 / qpmin=0 / qpmax=69 / qpstep=4 / vbv_maxrate=40000 / vbv_bufsize=30000 / crf_max=0.0 / nal_hrd=none / frame-packing=4 / ip_ratio=1.40 / aq=1:0.70
Язык : Russian
Default : Да
Forced : Нет

Аудио
Идентификатор : 2
Формат : AC-3
Формат/Информация : Audio Coding 3
Расширение режима : CM (complete main)
Идентификатор кодека : A_AC3
Продолжительность : 1 ч. 35 м.
Вид битрейта : Постоянный
Битрейт : 640 Кбит/сек
Каналы : 6 каналов
Расположение каналов : Front: L C R, Side: L R, LFE
Частота : 48,0 КГц
Битовая глубина : 16 бит
Метод сжатия : С потерями
Размер потока : 435 Мбайт (4%)
Заголовок : Оригинал
Язык : Russian
Default : Да
Forced : Нет

Меню
00:00:00.000 : :1
00:04:02.701 : :2
00:11:07.458 : :3
00:17:54.323 : :4
00:24:02.566 : :5
00:29:12.751 : :6
00:37:03.513 : :7
00:43:38.449 : :8
00:48:27.321 : :9
00:53:40.134 : :10
7999bd756981adc3cf2354fba3ffa97b02bb15f5[3D] Zомби каникулы (Кирилл Кемниц, Ужасы, триллер, комедия, 2013) [BDRip 1080p, Перевод не требуется] [Half OverUnder / Вертикальная анаморфная стереопара] [3D] Zомби каникулы (Кирилл Кемниц, Ужасы, триллер, комедия, 2013) [BDRip 1080p, Перевод не требуется] [Half OverUnder / Вертикальная анаморфная стереопара] " />

Аплоадер: Админ, дата: 8-09-2013, 19:24, торрент скачан: 359 раз

Понравилась раздача? Посмотрите эти:
  • [3D] Zомби каникулы (Кирилл Кемниц, Ужасы, триллер, комедия, 2013) [BDRip 1 ...
  • Zомби каникулы (Кирилл Кемниц, Ужасы, триллер, комедия, 2013) [BDRip 1080p, ...
  • Zомби каникулы (Кирилл Кемниц, Ужасы, триллер, комедия, 2013) [BDRip 720p, ...
  • Zомби каникулы (Кирилл Кемниц, Ужасы, триллер, комедия, 2013) [HDRip, Не тр ...
  • Zомби каникулы (Кирилл Кемниц, Ужасы, триллер, комедия, 2013) [BDRip, Не тр ...
  • [3D] G.I. Joe: Бросок кобры 2 / G.I. Joe: Retaliation [Theatrical Cut] (Джо ...
  • [3D] Мадагаскар 3 / Madagascar 3: Europes Most Wanted (Эрик Дарнелл, Том Ма ...
  • [3D] Тростниковые жабы: Оккупация / Cane Toads: The Conquest (Марк Льюис , ...
  • [3D] Магазинчик самоубийств / Le magasin des suicides (Патрис Леконт, мульт ...
  • [3D] Тростниковые жабы: Оккупация / Cane Toads: The Conquest (Марк Льюис , ...
  • [3D] Магазинчик самоубийств / Le magasin des suicides (Патрис Леконт, мульт ...
  • [3D] Санктум в 3Д / Sanctum in 3D (Aлистeр Гpирсoн, триллер, драма, приключ ...
  • [3D] Президент Линкольн: Охотник на вампиров / Abraham Lincoln: Vampire Hun ...
  • [3D] Мартышки в космосе: Ответный удар / Space Chimps 2: Zartog Strikes Bac ...
  • [3D] Повелитель стихий 3D / The Last Airbender 3D (М. Найт Шьямалан, фэнтез ...
  • [3D] Сайлент Хилл 2 / Silent Hill: Revelation 3D (Майкл Дж. Бассетт, Ужасы, ...
  • [3D] Жизнь Пи / Life of Pi (Энг Ли, драма, приключения, 2012) [BDRip 1080p, ...
  • [3D] The Black Eyed Peas / I Gotta Feeling (Pop, 2010) [BDRip-AVC] [Half Ov ...
  • [3D] Цирк! Цирк! Цирк! 3D/ Orla Frosnapper 3D (Питер Додд) [2011 г., мультф ...
  • [3D] Новая земля в 3Д / Nova zembla 3D (Рейну Урлеманс, история, 2011) [BDr ...
  • [3D] Путешествие к Центру Земли 3D / Journey to the Center of the Earth 3D ...
  • [3D] Дельфины и киты 3D / Dolphins and Whales: Tribes of the Ocean 3D (Жан- ...
  • [3D] Мумии: Секреты фараонов / IMAX - Mummies: Secrets of the Pharaohs (Кей ...
  • [3D] Секретная служба Санта-Клауса / Arthur Christmas (Сара Смит, Бэрри Кук ...
  • [3D] В случае убийства набирайте «М» в 3Д / Dial M for Murder 3D (Alfred Hi ...
  • Информация
    Посетители, находящиеся в группе Гости, не могут оставлять комментарии к данной публикации.