вход на сайт

Имя пользователя :
Пароль :

Восстановление пароля Регистрация
[3D] Стартрек: Возмездие / Star Trek Into Darkness (Джей Джей Абрамс / J.J. Abrams, Фантастика, Боевик, Приключения, 2013) [BDRip 1080p, Дубляж + Оригинал (английский) + Sub] [Half OverUnder / Вертикальная анаморфная стереопара]
Рейтинг:
(голосов: 1)



[img]{THEME}/images/logopost.png[/img]



Стартрек: Возмездие / Star Trek Into Darkness
«Beyond the darkness, lies greatness.»



Год выпуска: 2013
Страна: США
Производство: Bad Robot, Paramount Pictures, Skydance Productions
Жанр: Фантастика, Боевик, Приключения

Режиссер: Джей Джей Абрамс / J.J. Abrams
В ролях: Крис Пайн, Закари Куинто, Карл Урбан, Зои Салдана, Саймон Пегг, Бенедикт Камбербэтч, Антон Ельчин, Элис Ив, Джон Чо, Леонард Нимой

Перевод: Дубляж + Оригинал (английский)
Субтитры: Вшитые (softsub): Русские Форсированные (включены по умолчанию), Украинские Форсированные, Внешние (UTF-8): Русские Форсированные (включены по умолчанию), Русские Полные (BD), Украинские Форсированные, Украинские Полные, English Full, English SDH, English SDH Colored

Описание: Вернувшись на Землю, команда корабля «Энтерпрайз» обнаруживает, что деятельность и принципы их организации подорваны изнутри. Флот скован необъяснимым ужасом и бездействует, пока мир все глубже погружается в бездну.
Капитан Кирк берет на себя руководство операцией по поимке злодея, ответственного за этот хаос и способного уничтожить все человечество.
В запутанной игре не на жизнь, а на смерть, любовь и дружба будут принесены в жертву ради единственного, что осталось у Кирка — его команды.

МедиаИнфо ▼Text
General
Unique ID : 217115063076367046588532042243297617973 (0xA356D71320EE88EBB1DD313EDEB1A835)
Complete name : E:DownloadsStarTrek.IntoDarkness(2013)3D-halfOU(Ash61)StarTrek.IntoDarkness(2013)3D-halfOU(Ash61).mkv
Format : Matroska
Format version : Version 2
File size : 16.8 GiB
Duration : 2h 12mn
Overall bit rate : 18.2 Mbps
Movie name : Стартрек: Возмездие / Star Trek Into Darkness (2013) 3D
Encoded date : UTC 2013-09-11 14:25:59
Writing application : mkvmerge v5.8.0 (No Sleep / Pillow) built on Sep 2 2012 15:37:04
Writing library : libebml v1.2.3 + libmatroska v1.3.0

Video
ID : 1
Format : AVC
Format/Info : Advanced Video Codec
Format profile : [email protected]
Format settings, CABAC : Yes
Format settings, ReFrames : 4 frames
Codec ID : V_MPEG4/ISO/AVC
Duration : 2h 12mn
Bit rate : 16.6 Mbps
Width : 1 920 pixels
Height : 1 080 pixels
Display aspect ratio : 16:9
Frame rate mode : Constant
Frame rate : 23.976 fps
Color space : YUV
Chroma subsampling : 4:2:0
Bit depth : 8 bits
Scan type : Progressive
Bits/(Pixel*Frame) : 0.333
Stream size : 15.3 GiB (91%)
Title : BDRip by Ash61
Writing library : x264 core 129 r2245 bc13772
Encoding settings : cabac=1 / ref=4 / deblock=1:-3:-3 / analyse=0x3:0x113 / me=umh / subme=9 / psy=1 / psy_rd=1.00:0.15 / mixed_ref=1 / me_range=32 / chroma_me=1 / trellis=2 / 8x8dct=1 / cqm=0 / deadzone=21,11 / fast_pskip=1 / chroma_qp_offset=-3 / threads=12 / lookahead_threads=2 / sliced_threads=0 / nr=0 / decimate=1 / interlaced=0 / bluray_compat=0 / constrained_intra=0 / bframes=9 / b_pyramid=2 / b_adapt=2 / b_bias=0 / direct=3 / weightb=1 / open_gop=0 / weightp=2 / keyint=250 / keyint_min=23 / scenecut=40 / intra_refresh=0 / rc_lookahead=60 / rc=crf / mbtree=1 / crf=16.5 / qcomp=0.70 / qpmin=0 / qpmax=69 / qpstep=4 / vbv_maxrate=40000 / vbv_bufsize=30000 / crf_max=0.0 / nal_hrd=none / frame-packing=4 / ip_ratio=1.40 / aq=1:0.70
Language : English
Default : Yes
Forced : No

Audio #1
ID : 2
Format : AC-3
Format/Info : Audio Coding 3
Mode extension : CM (complete main)
Format settings, Endianness : Big
Codec ID : A_AC3
Duration : 2h 12mn
Bit rate mode : Constant
Bit rate : 640 Kbps
Channel(s) : 6 channels
Channel positions : Front: L C R, Side: L R, LFE
Sampling rate : 48.0 KHz
Bit depth : 16 bits
Compression mode : Lossy
Stream size : 605 MiB (4%)
Title : Дубляж - BD CEE
Language : Russian
Default : Yes
&
8acb468688a995f2d2fd33caa0385452651fcd3d[3D] Стартрек: Возмездие / Star Trek Into Darkness (Джей Джей Абрамс / J.J. Abrams, Фантастика, Боевик, Приключения, 2013) [BDRip 1080p, Дубляж + Оригинал (английский) + Sub] [Half OverUnder / Вертикальная анаморфная стереопара] [3D] Стартрек: Возмездие / Star Trek Into Darkness (Джей Джей Абрамс / J.J. Abrams, Фантастика, Боевик, Приключения, 2013) [BDRip 1080p, Дубляж + Оригинал (английский) + Sub] [Half OverUnder / Вертикальная анаморфная стереопара] " />

Аплоадер: Админ, дата: 12-09-2013, 02:32, торрент скачан: 359 раз

Понравилась раздача? Посмотрите эти:
  • Стартрек: Возмездие / Star Trek Into Darkness (Джей Джей Абрамс, Фантастика ...
  • [3D] Война миров Z / World War Z [Theatrical Cut] (Марк Форстер, Ужасы, Фа ...
  • Стартрек: Возмездие / Star Trek Into Darkness (Джей Джей Абрамс, Фантастика ...
  • Стартрек: Возмездие / Star Trek Into Darkness (Джей Джей Абрамс, фантастика ...
  • Стартрек: Возмездие / Star Trek Into Darkness (Джей Джей Абрамс, Фантастика ...
  • Стартрек: Возмездие / Star Trek Into Darkness (Джей Джей Абрамс, Фантастика ...
  • Стартрек: Возмездие / Star Trek Into Darkness (Джей Джей Абрам, фантастика, ...
  • Стартрек: Возмездие / Star Trek Into Darkness (Джей Джей Абрамс, фантастика ...
  • Стартрек: Возмездие / Star Trek Into Darkness (Джей Джей Абрамс, Фантастика ...
  • Стартрек: Возмездие / Star Trek Into Darkness (Джей Джей Абрамс, фантастика ...
  • Стартрек: Возмездие / Star Trek Into Darkness (Джей Джей Абрамс, фантастика ...
  • Стартрек: Возмездие / Star Trek Into Darkness (Джей Джей Абрамс, фантастика ...
  • Стартрек: Возмездие / Star Trek Into Darkness (Джей Джей Абрамс, фантастика ...
  • Стартрек: Возмездие / Star Trek Into Darkness (Джей Джей Абрамс, фантастика ...
  • Стартрек: Возмездие / Star Trek Into Darkness (Джей Джей Абрамс, фантастика ...
  • Стартрек: Возмездие / Star Trek Into Darkness (Джей Джей Абрамс, фантастика ...
  • Стартрек: Возмездие / Star Trek Into Darkness (Джей Джей Абрамс, фантастика ...
  • [3D] Стартрек: Возмездие 3D трейлер 2 / Star Trek Into Darkness 3D trailer ...
  • Звездный путь / Star Trek (Джей Джей Абрамс, Фантастика, боевик, приключени ...
  • Звездный путь / Star Trek (Джей Джей Абрамс, фантастика, боевик, приключени ...
  • [3D] Мcтители / The Аvengers (Джосс Уидон, Фантастика, Боевик, 2012) [BDRip ...
  • [3D] Мадагаскар 3 / Madagascar 3: Europes Most Wanted (Эрик Дарнелл, Том Ма ...
  • [3D] Стартрек: Возмездие 3D трейлер / Star Trek Into Darkness 3D trailer (Д ...
  • Звездный путь / Star Trek(Джей Джей Абрамс, фантастика, боевик, приключения ...
  • [Тизер] Стартрек: Возмездие / Star Trek Into Darkness (Джей Джей Абрамс, фа ...
  • Информация
    Посетители, находящиеся в группе Гости, не могут оставлять комментарии к данной публикации.