вход на сайт

Имя пользователя :
Пароль :

Восстановление пароля Регистрация
[3D] Амфибиус 3D / Amphibious 3D (Брайан Юзна, Ужасы, 2010) [HDTVRip,Профессиональный (многоголосый закадровый)] [alf Side-by-Side / Горизонтальная анаморфная стереопара]
Рейтинг:
(голосов: 1)



[img]{THEME}/images/logopost.png[/img]



Амфибиус 3D / Amphibious 3D

Год выпуска: 2010
Страна: Нидерланды ,Индонезия
Производство: A Komodo Dragon B.V
Жанр: Ужасы

Режиссёр: Брайан Юзна
В ролях: Майкл Паре, Мохаммад Адитья, Бамбанг Б.С., Стивен Барай, Френсис Боске, Джинна Фассерт, Майкл С. Джехиан, Френсис Маджи, Тимо Оттеванrер

Перевод: Профессиональный (многоголосый закадровый)
Озвучка:НТВ+
Субтитры: нет

Описание:Морской биолог Скайлар Шейн нанимает лодку капитана Джека Боумана, чтобы найти образцы доисторических форм возле северного побережья Суматры. Во время экспедиции, они сталкиваются с бандой контрабандистов, скрывающихся на рыболовецкой платформе посреди моря. Но контрабандисты не самое страшное, с чем придется столкнуться Скайлар — приближается жуткий шторм, а в темных глубинах вод проснулось древнее и могучее существо…

IMDB: 4.4/10
КиноПоиск: 3.71(145)

"Доп. информация" ▼Известный продюсер, режиссёр и сценарист Брайан Юзна, автор 4-х детей, и целой кучи шедевров в жанре *horror*, под своим брэндом Komodo Films после некоторого молчания выплеснул на зрителя свой очередной кинопроект. На этот раз..как бы помягче обозвать этот шлак...на этот раз режиссёр пошёл "старой школой", выпустив этакий b-movie-привет от ужастиков 70х-80х годов. Стоит заметить, что это не просто очередная *шляпа* в стиле ТВ3, это Первый голландский фильм в 3D! Вдобавок, проект очень органично вписался в кампанию, проводимую азиатскими правительствами по расширению своей 3D индустрии. Поэтому получил всестороннее одобрение как Индонезии, так и Нидерландов. Кстати, Суматра до 45-го года была голландской колонией, после - отошла к Индонезии. Можно сказать, "скрипа" в этой киномашине не было, это точно. Думаю, фото министра Культуры Индонезии, курирующего кинематограф и восхищённо всплёскивающего руками на киностудии Юзны, здесь излишне! Теперь по фильму:
География съёмок выбрана не только в силу коммерческо-политических нюансов, но и потому, что: около 73-х тысяч лет назад на острове Суматра произошёл гигантский взрыв вулкана Тоба. В результате на месте взрыва образовалась воронка диаметром около 100 км, а в атмосферу попало 800 кубических километров пыли и пепла. По мнению учёных это событие спровоцировало 1800-летний ледниковый период. Кстати, их до сих пор потряхивает и в наши дни. Так что где, как не на Суматре было появиться такой твари!
Сразу после окончания съёмок запустили пиар-машину и американского зрителя пытались заинтриговать кадрами со съёмочной площадки, обещая наложить ещё тонну копьютерной графики. Меня расстрогала до слёз футболка аборигена в правом верхнем углу!
Фильм выиграл главный приз среди 48 фильмов на кинофестивале 3D Stereo Media Film Festival in Liege. Это первый европейский кинофестиваль, посвященный 3D фильмам.

"MediaInfo" ▼Format : Matroska
Format version : Version 2
File size : 5.32 GiB
Duration : 1h 23mn
Overall bit rate : 9 176 Kbps
Writing application : Lavf51.12.1
Writing library : Lavf51.12.1

Video
ID : 1
Format : AVC
Format/Info : Advanced Video Codec
Format profile : [email protected]
Format settings, CABAC : No
Format settings, ReFrames : 1 frame
Codec ID : V_MPEG4/ISO/AVC
Duration : 1h 23mn
Bit rate : 8 545 Kbps
Width : 1 920 pixels
Height : 1 080 pixels
Display aspect ratio : 16:9
Frame rate mode : Variable
Frame rate : 25.000 fps
Color space : YUV
Chroma subsampling : 4:2:0
Bit depth : 8 bits
Scan type : Progressive
Bits/(Pixel*Frame) : 0.165
Stream size : 4.95 GiB (93%)
Language : English

Audio
ID : 2
Format : AC-3
Format/Info : Audio Coding 3
Mode extension : CM (complete main)
Codec ID : A_AC3
Duration : 1h 23mn
Bit rate mode : Constant
Bit rate : 448 Kbps
Channel(s) : 2 channels
Channel positions : Front: L R
Sampling rate : 44.1 KHz
Bit depth : 16 bits
Compression mode : Lossy
Stream size : 266 MiB (5%)
Language : English / Russian

Качество: HDTVRip
1b3575efd55e4d907d4dfa66c1c8a0c80d52feb3[3D] Амфибиус 3D / Amphibious 3D (Брайан Юзна, Ужасы, 2010) [HDTVRip,Профессиональный (многоголосый закадровый)] [alf Side-by-Side / Горизонтальная анаморфная стереопара] [3D] Амфибиус 3D / Amphibious 3D (Брайан Юзна, Ужасы, 2010) [HDTVRip,Профессиональный (многоголосый закадровый)] [alf Side-by-Side / Горизонтальная анаморфная стереопара] " />

Аплоадер: Админ, дата: 27-07-2012, 00:29, торрент скачан: 359 раз

Понравилась раздача? Посмотрите эти:
  • [3D] Обитель Зла: Проклятие / Biohazard: Damnation (Макото Камия, мультфиль ...
  • [3D] Britney Spears Live: The Femme Fatale Tour (Тед Кенни, Дэниель «Облако ...
  • Общество / Society (Брайан Юзна, Ужасы, комедия, детектив, 1989) [DVDRip, П ...
  • [3D] Пираньи 3Д / Piranha 3D (Александр Ажа / Alexandre Aja, ужасы, боевик, ...
  • [3D] Гибрид в 3Д / Hybrid 3D (Эрик Валетт / Eric Valette) [2010, Триллер, У ...
  • [3D] Пункт назначения 4 3Д / The Final Destination 3D (Дэвид Р. Эллис / Dav ...
  • [3D] Путешествие к Центру Земли 3Д / Journey to the Center of the Earth 3D ...
  • [3Д] Территория тьмы 3Д / Dark Country 3D (Томас Джейн,Триллер, детектив,20 ...
  • [3D] Гарри Поттер и Дары Смерти: часть 2 / Harry Potter and the Deathly Hal ...
  • [3D] Шаг вперед 3D / Step Up 3D (Джон М. Чу, мелодрама, драма, музыка, 2010 ...
  • [3D] Гибрид / Hybrid (Эрик Валетт / Eric Valette, Триллер, Ужасы, 2010) [BD ...
  • [3D] Другой мир: Пробуждение / Underworld: Awakening (Манс Марлинд , Ужасы ...
  • [3D] Глаз ребенка / Childs Eye (Оксид Пан, ужасы, 2010) [BDRip, Дублированн ...
  • [3D] Мой кровавый Валентин / My Bloody Valentine (Патрик Люссье, ужасы, три ...
  • [3D] Зов предков / Call of the Wild (Ричард Габай, драма, приключения, семе ...
  • [3D] Непристойное кино 3Д / Sex Pot 3D ( Эрик Форсберг / Eric Forsberg, Ко ...
  • [3D] Амфибия 3D / Amphibious 3D (Брайан Юзна / Brian Yuzna, Ужасы, 2010) [B ...
  • [3D]TOP GIRL 3D (Музыкальный клип демонстрирующий 3Д эффекты с максимальным ...
  • [3D] Тёмный мир (Антон Мегердичев, Фэнтези, триллер, 2010) [BD Rip 1080p, О ...
  • [3D] Рыбки в аквариуме 3D (КИВ, Документальное кино, 2012) [HDTV] [Anamorph ...
  • [3D] TOP GIRL 3D (Оригинальный клип от LG, демонстрирующий 3D эффекты с мак ...
  • [3D] Hannah Montana & Miley Cyrus: Best of Both Worlds Concert Tour 3D (Брю ...
  • [3D] Забери мою душу 3D / My Soul to Take 3D(Уэс Крэйвен,ужасы, триллер, де ...
  • [3D] Лондон 2012. Олимпийские игры. Церемония Открытия (Дэнни Бойл, Спорт, ...
  • [3D] Аквариум 3D ( Документальный, Видовой, Релакс, 2011) [HDTV, Перевод не ...
  • Информация
    Посетители, находящиеся в группе Гости, не могут оставлять комментарии к данной публикации.