вход на сайт

Имя пользователя :
Пароль :

Восстановление пароля Регистрация
[3D] Тёмный мир (Антон Мегердичев, Фэнтези, триллер, 2010) [BD Rip 1080p, Оригинал] [Half SideBySide / Горизонтальная анаморфная стереопара]
Рейтинг:
(голосов: 1)



[img]{THEME}/images/logopost.png[/img]





Год выпуска: 2010
Страна: Россия
Жанр: Фэнтези, триллер

Режиссёр: Антон Мегердичев
В ролях: Светлана Иванова, Иван Жидков, Елена Панова, Сергей Угрюмов, Владимир Носик, Илья Алексеев, Мария Кожевникова, Ксения Радченко, Захар Хунгуреев, Татьяна Кузнецова

Перевод: Оригинал
Субтитры: нет

Описание: Группа студентов отправляется в экспедицию по глухим северным деревням. В одной из них главная героиня - девушка, увлеченная мистикой и романтикой загробного мира - находит древний могильник, а в нем - магический щит. Дотронувшись до щита, она пробуждает гнев духов прошлого и приобретает сверхчеловеческие способности. Теперь студентам придется вступить в противостояние с силами зла.



IMDB: 4.70 (299)
КиноПоиск: 4.149 (10 020)

Доп. информация: Проверено на встроенном плейере ТВ Samsung D 6510



Качество: BDRip
Продолжительность:01:45:24 час.
Формат / Контейнер: MKV (Matroska)
Формат 3D: Half SideBySide / Горизонтальная анаморфная стереопара
Порядок ракурсов: Левый ракурс первый

Видео кодек: H.264
Аудио кодек: AC3
Видео: MPEG4_AVC (x264),1920x1080 (16:9),~ 8 637 kbps avg,23,976 fps
Аудио: Русский, AC3, 6 каналов, ~ 448 kbps, 448 Kbps, 48 kHz [RUS]

MediaInfo ▼Complete name : H:3D фильмыТриллерТёмный Мир.mkv
Format : Matroska
File size : 6.82 GiB
Duration : 1h 45mn
Overall bit rate : 9 269 Kbps
Movie name : Тёмный Мир.mkv
Encoded date : UTC 2011-05-14 11:32:07
Writing application : DVDFab
Writing library : libebml v0.7.8 + libmatroska v0.8.1

Video
ID : 1
Format : AVC
Format/Info : Advanced Video Codec
Format profile : [email protected]
Format settings, CABAC : Yes
Format settings, ReFrames : 2 frames
Codec ID : V_MPEG4/ISO/AVC
Duration : 1h 45mn
Bit rate mode : Variable
Bit rate : 8 637 Kbps
Maximum bit rate : 13.3 Mbps
Width : 1 920 pixels
Height : 1 080 pixels
Display aspect ratio : 16:9
Frame rate : 23.976 fps
Color space : YUV
Chroma subsampling : 4:2:0
Bit depth : 8 bits
Scan type : Progressive
Bits/(Pixel*Frame) : 0.174
Stream size : 6.36 GiB (93%)

Audio
ID : 2
Format : AC-3
Format/Info : Audio Coding 3
Mode extension : CM (complete main)
Codec ID : A_AC3
Duration : 1h 45mn
Bit rate mode : Constant
Bit rate : 448 Kbps
Channel(s) : 6 channels
Channel positions : Front: L C R, Side: L R, LFE
Sampling rate : 48.0 KHz
Bit depth : 16 bits
Compression mode : Lossy
Stream size : 338 MiB (5%)



a39aa150cea2330b7643e5729285d063de0f7623[3D] Тёмный мир (Антон Мегердичев, Фэнтези, триллер, 2010) [BD Rip 1080p, Оригинал] [Half SideBySide / Горизонтальная анаморфная стереопара] [3D] Тёмный мир (Антон Мегердичев, Фэнтези, триллер, 2010) [BD Rip 1080p, Оригинал] [Half SideBySide / Горизонтальная анаморфная стереопара] " />

Аплоадер: Админ, дата: 12-04-2012, 14:18, торрент скачан: 359 раз

Понравилась раздача? Посмотрите эти:
  • [3D] Смурфики 2 / The Smurfs 2 (Раджа Госнелл, Мультфильм, Фэнтези, Комедия ...
  • [3D] Демо-ролики 3D от Samsung / Delicious Fight 3D & Time Magician 3D (Ли ...
  • [3D] Обитель Зла: Проклятие / Biohazard: Damnation (Макото Камия, мультфиль ...
  • [3D] Бой за звание чемпиона мира в супертяжелом весе по версии WBA / David ...
  • [3Д] Территория тьмы 3Д / Dark Country 3D (Томас Джейн,Триллер, детектив,20 ...
  • [3D] Дикий океан 3D / Wild Ocean 3D (Люк Крессвелл, Стив МакНиколас, Докуме ...
  • [3D] Гарри Поттер и Дары Смерти: часть 2 / Harry Potter and the Deathly Hal ...
  • [3D] Шаг вперед 3D / Step Up 3D (Джон М. Чу, мелодрама, драма, музыка, 2010 ...
  • [3D] Другой мир: Пробуждение / Underworld: Awakening (Манс Марлинд , Ужасы ...
  • [3D] Зов предков / Call of the Wild (Ричард Габай, драма, приключения, семе ...
  • [3D] Непристойное кино 3Д / Sex Pot 3D ( Эрик Форсберг / Eric Forsberg, Ко ...
  • [3D] Michael Jackson / Earth Song (Поп-музыка, 2009) [BDRip-AVC, Перевод не ...
  • Темный мир (Антон Мегердичев, фэнтези, триллер, 2010) [BDRip 720p, Оригинал ...
  • Темный мир (Антон Мегердичев, триллер, фэнтези 2010) [DVDRip, Оригинал [ли ...
  • Темный мир (Антон Мегердичев, мелодрама, драма, 2010) [DVDRip, Оригинал] by ...
  • [3D] Темный мир 3D (Антон Мегердичев, триллер, фэнтези, 2010) [DVDRip, Ориг ...
  • Темный мир 2D и 3D (Антон Мегердичев, триллер, фэнтези, мистика, 2010) [DVD ...
  • Тёмный мир (Антон Мегердичев, фэнтези, триллер, 2010) [BDRip-AVC, оригинал] ...
  • [3D]TOP GIRL 3D (Музыкальный клип демонстрирующий 3Д эффекты с максимальным ...
  • Темный мир (Антон Мегердичев, фэнтези, триллер, 2010) [HDRip, Не требуется] ...
  • [3D] Рыбки в аквариуме 3D (КИВ, Документальное кино, 2012) [HDTV] [Anamorph ...
  • [3D] TOP GIRL 3D (Оригинальный клип от LG, демонстрирующий 3D эффекты с мак ...
  • [3D] LG Cinema 3D Demo SBS (Демонстрационный, Рекламный ролик, 2011) [Web-R ...
  • [3D] SKY 3D [Демонстрационный ролик с вылетами из экрана, 2011,HDTV] [Half ...
  • [3D] Аквариум 3D ( Документальный, Видовой, Релакс, 2011) [HDTV, Перевод не ...
  • Информация
    Посетители, находящиеся в группе Гости, не могут оставлять комментарии к данной публикации.