вход на сайт

Имя пользователя :
Пароль :

Восстановление пароля Регистрация
[3D] Шаг вперед / Step Up (Джон М. Чу, драма, мелодрама, музыка, 2010) [BDRip 720p, Профессиональный (полное дублирование) (Anaglyph / redcyan)
Рейтинг:
(голосов: 1)



[img]{THEME}/images/logopost.png[/img]



Шаг вперед 3D / Step Up 3D

Год выпуска: 2010
Страна: США
Производство: Summit Entertainment
Жанр: мелодрама, драма, музыка
Режиссёр: Джон М. Чу / Jon Chu
В ролях: Рик Маламбри, Адам Дж. Севани, Шарни Винсон, Элисон Стоунер, Кит Ремеди Сталлворт, Кендра Эндрюс, Стивен Стэннерт, Мартин Ломбард, Факундо Ломбард, Орен Михаэли, Джо Слотер, Дэниель Облако Кампос
Перевод: Профессиональный (полное дублирование)

Описание: Некоторые учатся танцевать, другие рождены для этого. Люк ищет танцоров для своей команды «Пираты». В конце концов, ему встречаются Лось, поступивший в Нью-Йоркский университет, и Натали, загадочная танцовщица, которая никогда не проигрывает. Смогут ли они превзойти лучших мировых танцоров?



IMDB: IMDB:5.20 (6 204)
КиноПоиск: 7.346 (11,514)

Качество: HDrip
Продолжительность: 01:47:11 час.

Формат: MKV

Формат 3D: Anaglyph / Анаглиф redcyan

Видео кодек: x264
Аудио кодек: DTS
Видео: MPEG4 Video (H264) 1280x720p 23.98fps 6543 Kbps
Аудио 1: Russian : DTS 48000Hz 6ch 755 kbps
Аудио 2: English : DTS 48000Hz 6ch 1510 kbps

Доп. информация:
"Дополнительная информация" ▼
Format : Matroska
File size : 6.73 GiB
Duration : 1h 47mn
Overall bit rate : 8 986 Kbps
Encoded date : UTC 2010-12-27 11:26:31
Writing application : mkvmerge v2.9.7 (Tenderness) built on Jul 1 2009 18:43:35
Writing library : libebml v0.7.7 + libmatroska v0.8.1


Video
ID : 1
Format : AVC
Format/Info : Advanced Video Codec
Format profile : [email protected]
Format settings, CABAC : Yes
Format settings, ReFrames : 4 frames
Muxing mode : Container [email protected]
Codec ID : V_MPEG4/ISO/AVC
Duration : 1h 47mn
Bit rate : 6 543 Kbps
Width : 1 280 pixels
Height : 720 pixels
Display aspect ratio : 16:9
Frame rate : 23.976 fps
Color space : YUV
Chroma subsampling : 4:2:0
Bit depth : 8 bits
Scan type : Progressive
Bits/(Pixel*Frame) : 0.296
Stream size : 4.90 GiB (73%)
Writing library : x264 core 112 r1834 a51816a
Encoding settings : cabac=1 / ref=4 / deblock=1:-2:-2 / analyse=0x3:0x113 / me=umh / subme=7 / psy=1 / psy_rd=1.00:0.15 / mixed_ref=1 / me_range=16 / chroma_me=1 / trellis=2 / 8x8dct=1 / cqm=0 / deadzone=21,11 / fast_pskip=1 / chroma_qp_offset=-3 / threads=6 / sliced_threads=0 / nr=0 / decimate=1 / interlaced=0 / constrained_intra=0 / bframes=6 / b_pyramid=0 / b_adapt=2 / b_bias=0 / direct=3 / weightb=1 / open_gop=0 / weightp=2 / keyint=250 / keyint_min=23 / scenecut=40 / intra_refresh=0 / rc_lookahead=40 / rc=crf / mbtree=1 / crf=18.0 / qcomp=0.60 / qpmin=10 / qpmax=51 / qpstep=4 / ip_ratio=1.40 / aq=1:1.00
Language : English


Audio #1
ID : 2
Format : DTS
Format/Info : Digital Theater Systems
Codec ID : A_DTS
Duration : 1h 47mn
Bit rate mode : Constant
Bit rate : 755 Kbps
Channel(s) : 6 channels
Channel positions : Front: L C R, Side: L R, LFE
Sampling rate : 48.0 KHz
Bit depth : 24 bits
Stream size : 578 MiB (8%)
Title : DTS; 768 Kbps @ 5.1 Kbps - (Dubbing)
Language : Russian


Audio #2
ID : 3
Format : DTS
Format/Info : Digital Theater Systems
Format profile : ES
Codec ID : A_DTS
Duration : 1h 47mn
Bit rate mode : Constant
Bit rate : 1 510 Kbps
Channel(s) : 6 channels
Channel positions : Front: L C R, Side: L R, LFE
Sampling rate : 48.0 KHz
Bit depth : 24 bits
Stream size : 1.13 GiB (17%)
Title : DTS; 1536 Kbps @ 5.1 ch (English)
Language : English


Text #1
ID : 4
Format : UTF-8
Codec ID : S_TEXT/UTF8
Codec ID/Info : UTF-8 Plain Text
Title : Rus
Language : Russian


Text #2
ID : 5
Format : UTF-8
Codec ID : S_TEXT/UTF8
Codec ID/Info : UTF-8 Plain Text
Language : English


Menu
00:00:00.000 : en:Chapter 1
00:04:30.854 : en:Chapter 2
00:09:58.681 : en:Chapter 3
00:15:26.759 : en:Chapter 4
00:20:01.784 : en:Chapter 5
00:24:44.149 : en:Chapter 6
00:29:44.199 : en:Chapter 7
00:37:10.311 : en:Chapter 8
00:41:22.271 : en:Chapter 9
00:45:44.700
7aa92713e176a26b797355c9a1aae20e4de894b6[3D] Шаг вперед / Step Up (Джон М. Чу, драма, мелодрама, музыка, 2010) [BDRip 720p, Профессиональный (полное дублирование) (Anaglyph / redcyan) [3D] Шаг вперед / Step Up (Джон М. Чу, драма, мелодрама, музыка, 2010) [BDRip 720p, Профессиональный (полное дублирование) (Anaglyph / redcyan) " />

Аплоадер: Админ, дата: 3-02-2011, 22:37, торрент скачан: 359 раз

Понравилась раздача? Посмотрите эти:
  • Грязь / Filth (Джон С. Бейрд, криминал, драма, комедия, 2013) [BDRip-AVC, ...
  • Даю год / I Give It a Year (Дэн Мазер, Мелодрама, Комедия, 2013) [BDRip-AVC ...
  • Суррогат / The Sessions (Бен Луин, драма, 2012) [BDRip 720p, Профессиональн ...
  • Шаг вперед 3 / Step Up 3 (Джон М. Чу, драма, мелодрама, музыка, 2010) [HDRi ...
  • Шаг вперед 3 / Step Up 3 (Джон М. Чу, Драма, мелодрама, музыка, 2010) [BDRi ...
  • Шаг вперед 3 / Step Up 3 (Джон М. Чу, драма, мелодрама, музыка, 2010) [BDRi ...
  • Терминал / The Terminal (Стивен Спилберг, комедия, мелодрама, драма, 2004) ...
  • Шаг вперед 3D / Step Up 3D (Джон М. Чу, драма, мелодрама, музыка, 2010) [BD ...
  • Шаг вперед 3 / Step Up 3D (Джон М. Чу, драма, мелодрама, музыка, 2010) [BDR ...
  • [3D] Шаг вперед 3D / Step Up 3D (Джон М. Чу, мелодрама, драма, музыка, 2010 ...
  • [3D] Шаг вперед 3D / Step Up 3D (Джон М. Чу / Jon Chu, Мелодрама, Драма, Му ...
  • Шаг вперед 3 / Step Up 3 (Джон М. Чу, драма, мелодрама, музыка, 2010) [BDRi ...
  • Шаг вперед 3 / Step Up 3 (Джон М. Чу, драма, мелодрама, музыка, 2010) [BDRi ...
  • Секс по дружбе / Friends with Benefits (Уилл Глак, драма, мелодрама, комеди ...
  • Схватка / The Grey (Джо Карнахан, Боевик, 2012) [BDRip 720p, Профессиональн ...
  • Запрещенная реальность (Константин Максимов, фантастика, боевик, 2009) [BDR ...
  • Ю-571 / U-571 (Джонатан Мостоу, Боевик, 2000) [BDRip - AVC, Дубляж + Субтит ...
  • [EN] Шаг вперед 3 / Step Up 3 (Джон Чу, мелодрама, драма, музыка, 2010) [HD ...
  • Шаг вперед 3 / Step Up 3 (Джон Чу / Jon Chu, Мелодрама / Драма / Музыка, 20 ...
  • Шаг вперед 3 / Step Up 3 (Джон М. Чу, драма, мелодрама, музыка, 2010) [HDRi ...
  • Шаг вперед 3 / Step Up 3 (Джон М. Чу, Драма, Мелодрама, Музыка, 2010) [DVD5 ...
  • Шаг вперед 3 / Step Up 3 (Джон М. Чу, Мелодрама, Драма, Музыка, 2010) [640x ...
  • Шаг вперед 3 / Step Up 3 (Джон М. Чу, драма, мелодрама, музыка, 2010) [BDRi ...
  • Шаг вперед 3 / Step Up 3 (Джон М. Чу, драма, мелодрама, музыка, 2010) [320x ...
  • Собачье сердце (Владимир Бортко, фантастика, драма, комедия, 1988) [BDRip 1 ...
  • Информация
    Посетители, находящиеся в группе Гости, не могут оставлять комментарии к данной публикации.