вход на сайт

Имя пользователя :
Пароль :

Восстановление пароля Регистрация
[3D] Секретная служба Санта-Клауса / Arthur Christmas (Сара Смит, Бэрри Кук, Мультфильм, драма, комедия, семейный, 2011) [BDRip 1080p, Дубляж, Ukrainian, Оригинал (английский), Sub] [OverUnder / Вертикальная анаморфная стереопара]
Рейтинг:
(голосов: 1)



[img]{THEME}/images/logopost.png[/img]



Секретная служба Санта-Клауса / Arthur Christmas
«А вам слабо развезти 2 миллиарда подарков за одну ночь?»


Год выпуска: 2011
Страна: Великобритания, США
Производство: Sony Pictures Animation, Aardman Animations
Жанр: Мультфильм, драма, комедия, семейный

Режиссёр: Сара Смит, Бэрри Кук
В ролях: Джеймс МакЭвой, Хью Лори, Билл Найи, Джим Броудбент, Имелда Стонтон, Эшли Дженсен, Марк Вуттон, Лора Линни, Ева Лонгория, Рамона Маркес

Перевод: Дубляж, Ukrainian, Оригинал (английский)
Субтитры: Russian, English

Описание: Фильм приоткрывает завесу тайны над тем, каким образом Санта-Клаусу удается развезти подарки всем детям на Земле всего за одну ночь.

Релиз от:





Доп. информация:
Формат 3D: OverUnder / Вертикальная стереопара
Порядок ракурсов: Левый ракурс первый

Качество: BDRip 1080p | Сэмпл
Продолжительность: 01:37:32 час.

Формат: MKV
Видео кодек: x264
Аудио кодек: AC3, DTS
Видео: 1920x1080(16:9), 23.976fps, x264 ~9 770 kbps avg , 0.197 bit/pixel
Аудио#1: 48 kHz, AC3, 3/2 (L,C,R,l,r) + LFE ch, ~640.00 kbps avg - (Дубляж)
Аудио#2: 48 kHz, AC3, 3/2 (L,C,R,l,r) + LFE ch, ~640.00 kbps avg - (Ukrainian)
Аудио#3: DTS, 48 kHz/16-bit, 3/2 (L,C,R,l,r) + LFE ch, ~1510 kbps avg - (Оригинал)

Дата премьеры (мир): 11 ноября 2011
Дата премьеры (РФ): 8 декабря 2011, «WDSSPR»

MediaInfo ▼
Полное имя : D:Arthur.Christmas.2011.1080p.3D.BluRay.Half-OU.Rus.Ukr.Eng.HDCLUB.mkv
Формат : Matroska
Версия формата : Version 2
Размер файла : 8,73 Гбайт
Продолжительность : 1 ч. 37 м.
Общий поток : 12,8 Мбит/сек
Дата кодирования : UTC 2012-11-11 20:51:28
Программа кодирования : mkvmerge v3.4.0 (Rapunzel) built on May 15 2010 09:38:20
Библиотека кодирования : libebml v0.8.0 + libmatroska v0.9.0

Видео
Идентификатор : 1
Формат : AVC
Формат/Информация : Advanced Video Codec
Профиль формата : [email protected]
MultiView_Count : 2
MultiView_Layout : Both Eye
Параметр CABAC формата : Да
Параметр ReFrames формата : 4 кадра
Идентификатор кодека : V_MPEG4/ISO/AVC
Продолжительность : 1 ч. 37 м.
Битрейт : 9770 Кбит/сек
Ширина : 1920 пикселей
Высота : 1080 пикселей
Соотношение сторон : 16:9
Режим частоты кадров : Постоянный
Частота кадров : 23,976 кадра/сек
Цветовое пространство : YUV
Субдискретизация насыщенности : 4:2:0
Битовая глубина : 8 бит
Тип развёртки : Прогрессивная
Бит/(Пиксели*Кадры) : 0.197
Размер потока : 6,66 Гбайт (76%)
Библиотека кодирования : x264 core 125 r2208 d9d2288
Настройки программы : cabac=1 / ref=4 / deblock=1:-3:-3 / analyse=0x3:0x113 / me=umh / subme=10 / psy=1 / psy_rd=1.00:0.15 / mixed_ref=1 / me_range=32 / chroma_me=1 / trellis=2 / 8x8dct=1 / cqm=0 / deadzone=21,11 / fast_pskip=1 / chroma_qp_offset=-3 / threads=18 / lookahead_threads=3 / sliced_threads=0 / nr=0 / decimate=1 / interlaced=0 / bluray_compat=0 / constrained_intra=0 / bframes=6 / b_pyramid=2 / b_adapt=1 / b_bias=0 / direct=3 / weightb=1 / open_gop=0 / weightp=2 / keyint=250 / keyint_min=23 / scenecut=40 / intra_refresh=0 / rc_lookahead=40 / rc=crf / mbtree=1 / crf=16.0 / qcomp=0.60 / qpmin=10 / qpmax=69 / qpstep=4 / vbv_maxrate=40000 / vbv_bufsize=30000 / crf_max=0.0 / nal_hrd=none / ip_ratio=1.40 / aq=1:1.00
Default : Нет
Forced : Нет

Аудио #1
Идентификатор : 2
Формат : AC-3
Формат/Информация : Audio Coding 3
Расширение режима : CM (complete main)
Параметр Endianness формата : Big
Идентификатор кодека : A_AC3
Продолжительность : 1 ч. 37 м.
Вид битрейта : Постоянный
Битрейт : 640 Кбит/сек
Каналы : 6 каналов
Расположение каналов : Front: L C R, Side: L R, LFE
Частота : 48,0 КГц
Битовая глубина : 16 бит
Метод сжатия : С потерями
Размер потока : 447 Мбайт (5%)
Заголовок : AC3 5.1 @ 640 kbps - Дублированный, Blu-ray
Язык : Russian
Default : Да
Forced : Нет

Аудио #2
Идентификатор : 3
Формат : AC-3
Формат/Информация : Audio Coding 3
Расширение режима : CM (complete main)
dc9b6f337cb7db8ff513bc64efe74d796c36de48[3D] Секретная служба Санта-Клауса / Arthur Christmas (Сара Смит, Бэрри Кук, Мультфильм, драма, комедия, семейный, 2011) [BDRip 1080p, Дубляж, Ukrainian, Оригинал (английский), Sub] [OverUnder / Вертикальная анаморфная стереопара] [3D] Секретная служба Санта-Клауса / Arthur Christmas (Сара Смит, Бэрри Кук, Мультфильм, драма, комедия, семейный, 2011) [BDRip 1080p, Дубляж, Ukrainian, Оригинал (английский), Sub] [OverUnder / Вертикальная анаморфная стереопара] " />

Аплоадер: Админ, дата: 12-11-2012, 14:17, торрент скачан: 359 раз

Понравилась раздача? Посмотрите эти:
  • [3D] Zомби каникулы (Кирилл Кемниц, Ужасы, триллер, комедия, 2013) [BDRip 1 ...
  • [3D] Эпик / Epic (Крис Уэдж, Мультфильм, фэнтези, приключения, комедия, сем ...
  • [3D] G.I. Joe: Бросок кобры 2 / G.I. Joe: Retaliation [Theatrical Cut] (Джо ...
  • [3D] Мадагаскар 3 / Madagascar 3: Europes Most Wanted (Эрик Дарнелл, Том Ма ...
  • [3D] Санктум в 3Д / Sanctum in 3D (Aлистeр Гpирсoн, триллер, драма, приключ ...
  • [3D] Президент Линкольн: Охотник на вампиров / Abraham Lincoln: Vampire Hun ...
  • [3D] Мартышки в космосе: Ответный удар / Space Chimps 2: Zartog Strikes Bac ...
  • Секретная служба Санта-Клауса / Arthur Christmas (Сара Смит, Комедия, драма ...
  • Секретная служба Санта-Клауса / Arthur Christmas (Сара Смит, Бэрри Кук, Мул ...
  • Секретная служба Санта-Клауса / Arthur Christmas (Сара Смит, Бэрри Кук, Мул ...
  • Секретная служба Санта-Клауса / Arthur Christmas (Сара Смит, Бэрри Кук, мул ...
  • [3D] Убойное Рождество Гарольда и Кумара 3D / A Very Harold & Kumar 3D Chri ...
  • [3D] Цирк! Цирк! Цирк! 3D/ Orla Frosnapper 3D (Питер Додд) [2011 г., мультф ...
  • [3D] Фантом 3D / The Darkest Hour 3D (Крис Горак, Фантастика, 2011) [BDRip ...
  • [3D] Кошмар перед Рождеством 3D / The Nightmare Before Christmas 3D (Генри ...
  • [3D] Полярный экспресс 3D / The Polar Express 3D (Роберт Земекис, Мультфиль ...
  • [3D] Мадагаскар 3 / Madagascar 3: Europes Most Wanted (Эрик Дарнелл, Том Ма ...
  • [3D] Секретная служба Санта-Клауса / Arthur Christmas (Сара Смит, Бэрри Кук ...
  • Секретная служба Санта-Клауса / Arthur Christmas (Сара Смит, Бэрри Кук, Мул ...
  • Секретная служба Санта-Клауса / Arthur Christmas (Сара Смит, Бэрри Кук, Мул ...
  • Секретная служба Санта-Клауса / Arthur Christmas (Сара Смит, Бэрри Кук, Мул ...
  • [iPhone, iPod] Секретная служба Санта-Клауса / Arthur Christmas (Сара Смит, ...
  • Секретная служба Санта-Клауса / Arthur Christmas (Сара Смит, Бэрри Кук, Мул ...
  • Секретная служба Санта-Клауса / Arthur Christmas (Сара Смит, Бэрри Кук, Мул ...
  • Секретная служба Санта-Клауса / Arthur Christmas (Сара Смит, Бэрри Кук, Мул ...
  • Информация
    Посетители, находящиеся в группе Гости, не могут оставлять комментарии к данной публикации.