вход на сайт

Имя пользователя :
Пароль :

Восстановление пароля Регистрация
[3D] Мадагаскар 3 / Madagascar 3: Europes Most Wanted (Эрик Дарнелл, Том МакГрат, Конрад Вернон, Мультфильм, 2012) [BDRip 1080p, Дубляж, Оригинал (английский), Ukrainian, Sub] [Half OverUnder / Вертикальная анаморфная стереопара]
Рейтинг:
(голосов: 1)



[img]{THEME}/images/logopost.png[/img]



Мадагаскар 3 / Madagascar 3: Europes Most Wanted
«The world is sick. And we are the doctors.»


Год выпуска: 2012
Страна: США
Производство: DreamWorks Animation, Pacific Data Images (PDI)
Жанр: Мультфильм

Режиссёр: Эрик Дарнелл, Том МакГрат, Конрад Вернон
В ролях: Бен Стиллер, Крис Рок, Дэвид Швиммер, Джада Пинкетт Смит, Саша Барон Коэн, Седрик «Развлекатель», Энди Рихтер, Фрэнсис МакДорманд, Брайан Крэнстон, Мартин Шорт

Перевод: Дубляж, Ukrainian, Оригинал (английский)
Субтитры: Русские Форсированные (включены по умолчанию), Русские Полные, Украинские Форсированные, Украинские Полные, English Full, English SDH

Описание: Лев Алекс, зебра Марти, гиппопотамиха Глория и жираф Мелман, а также король Джулиан, Морис, Морт и Пингвины все еще пытаются вернуться в Нью-Йорк. На этот раз их путь пройдет через Европу, где они откроют свой цирк.

Доп. информация:
Формат 3D: Half OverUnder / Вертикальная анаморфная стереопара
Порядок ракурсов: Левый ракурс первый


Качество: BDRip 1080p | Сэмпл
Продолжительность: 01:33:24 час.


Формат: MKV
Видео кодек: x264
Аудио кодек: AC3
Видео: 1920x1080 (16:9), 23.976 fps, x264 ~ 13.3 mb/s, 0.267 bit/pixel
Аудио#1: 48 kHz, AC3 Dolby Digital, 3/2 (L,C,R,l,r) + LFE ch, ~640 kbps (Дубляж)
Аудио#2: 48 kHz, AC3 Dolby Digital, 3/2 (L,C,R,l,r) + LFE ch, ~640 kbps (Оригинал)
Аудио#3: 48 kHz, AC3 Dolby Digital, 3/2 (L,C,R,l,r) + LFE ch, ~640 kbps (Ukrainian)

Дата премьеры (мир): 18 мая 2012
Дата премьеры (РФ): 7 июня 2012, «Централ Партнершип»

MediaInfo ▼
General
Unique ID : 185779635925013642235824362250413308479 (0x8BC3DB3C476B4033946E1C6A892C7A3F)
Complete name : G:DownloadsMadagascar3.EuropesMostWanted(3D)2012.halfOU(Ash61)Madagascar3.EuropesMostWanted(3D)2012.halfOU(Ash61).mkv
Format : Matroska
Format version : Version 2
File size : 10.1 GiB
Duration : 1h 33mn
Overall bit rate : 15.5 Mbps
Movie name : Madagascar 3: Europes Most Wanted (3D) 2012 (by Ash61)
Encoded date : UTC 2012-10-12 07:18:02
Writing application : mkvmerge v5.8.0 (No Sleep / Pillow) built on Sep 2 2012 15:37:04
Writing library : libebml v1.2.3 + libmatroska v1.3.0

Video
ID : 1
Format : AVC
Format/Info : Advanced Video Codec
Format profile : [email protected]
Format settings, CABAC : Yes
Format settings, ReFrames : 4 frames
Codec ID : V_MPEG4/ISO/AVC
Duration : 1h 33mn
Bit rate : 13.3 Mbps
Width : 1 920 pixels
Height : 1 080 pixels
Display aspect ratio : 16:9
Frame rate mode : Constant
Frame rate : 23.976 fps
Color space : YUV
Chroma subsampling : 4:2:0
Bit depth : 8 bits
Scan type : Progressive
Bits/(Pixel*Frame) : 0.267
Stream size : 8.67 GiB (86%)
Title : BDrip by Ash61
Writing library : x264 core 119 r2106 07efeb4
Encoding settings : cabac=1 / ref=4 / deblock=1:-3:-3 / analyse=0x3:0x113 / me=umh / subme=9 / psy=1 / psy_rd=1.00:0.15 / mixed_ref=1 / me_range=16 / chroma_me=1 / trellis=2 / 8x8dct=1 / cqm=0 / deadzone=21,11 / fast_pskip=1 / chroma_qp_offset=-3 / threads=12 / sliced_threads=0 / nr=0 / decimate=1 / interlaced=0 / bluray_compat=0 / constrained_intra=0 / bframes=6 / b_pyramid=2 / b_adapt=2 / b_bias=0 / direct=3 / weightb=1 / open_gop=0 / weightp=2 / keyint=250 / keyint_min=23 / scenecut=40 / intra_refresh=0 / rc_lookahead=60 / rc=crf / mbtree=1 / crf=17.0 / qcomp=0.70 / qpmin=0 / qpmax=69 / qpstep=4 / vbv_maxrate=40000 / vbv_bufsize=40000 / crf_max=0.0 / nal_hrd=none / frame-packing=4 / ip_ratio=1.40 / aq=1:0.70
Default : Yes
Forced : No

Audio #1
ID : 2
Format : AC-3
Format/Info : Audio Coding 3
Mode extension : CM (complete main)
Format settings, Endianness : Big
Codec ID : A_AC3
Duration : 1h 33mn
Bit rate mode : Constant
Bit rate : 640 Kbps
Channel(s) : 6 channels
Channel positions : Front: L C R, Side: L R, LFE
Sampling rate : 48.0 KHz
Bit depth : 16 bits
Compression mode : Lossy
Stream size : 428 MiB (4%)
Title : Дубляж - BD CEE
Language : Russian
Default : Yes
a21855311b30f04d9c446b8d2c96d8ff06050733[3D] Мадагаскар 3 / Madagascar 3: Europes Most Wanted (Эрик Дарнелл, Том МакГрат, Конрад Вернон, Мультфильм, 2012) [BDRip 1080p, Дубляж, Оригинал (английский), Ukrainian, Sub] [Half OverUnder / Вертикальная анаморфная стереопара] [3D] Мадагаскар 3 / Madagascar 3: Europes Most Wanted (Эрик Дарнелл, Том МакГрат, Конрад Вернон, Мультфильм, 2012) [BDRip 1080p, Дубляж, Оригинал (английский), Ukrainian, Sub] [Half OverUnder / Вертикальная анаморфная стереопара] " />

Аплоадер: Админ, дата: 21-10-2012, 15:59, торрент скачан: 359 раз

Понравилась раздача? Посмотрите эти:
  • [3D] Мадагаскар 3 / Madagascar 3: Europes Most Wanted (Эрик Дарнелл, Том Ма ...
  • [ENG] Мадагаскар 3 / Madagascar 3: Europes Most Wanted ( Эрик Дарнелл, Том ...
  • Мадагаскар 3 / Madagascar 3: Europes Most Wanted (Эрик Дарнелл, Том МакГрат ...
  • Мадагаскар 3 / Madagascar 3: Europes Most Wanted (Эрик Дарнелл, Том МакГрат ...
  • Мадагаскар 3 / Madagascar 3: Europes Most Wanted (Эрик Дарнелл, Том МакГрат ...
  • Мадагаскар 3 / Madagascar 3: Europes Most Wanted ( Эрик Дарнелл, Том МакГра ...
  • Мадагаскар 3 / Madagascar 3: Europes Most Wanted (Эрик Дарнелл, Том МакГрат ...
  • Мадагаскар 3 / Madagascar 3: Europes Most Wanted (Эрик Дарнелл, Том МакГрат ...
  • Мадагаскар 3 / Madagascar 3: Europes Most Wanted (Эрик Дарнелл, Том МакГрат ...
  • Мадагаскар 3 / Madagascar 3: Europes Most Wanted (Эрик Дарнелл, Том МакГрат ...
  • [3D] Мcтители / The Аvengers (Джосс Уидон, Фантастика, Боевик, 2012) [BDRip ...
  • [3D] Мадагаскар 3 / Madagascar 3: Europes Most Wanted (Эрик Дарнелл, Том Ма ...
  • [3D] Мадагаскар 3 / Madagascar 3: Europes Most Wanted (Эрик Дарнелл, Том Ма ...
  • Мадагаскар 3 / Madagascar 3: Europes Most Wanted (Эрик Дарнелл, Том МакГрат ...
  • Мадагаскар 3 / Madagascar 3: Europes Most Wanted (Эрик Дарнелл, Том МакГрат ...
  • Мадагаскар 3 / Madagascar 3: Europes Most Wanted (Эрик Дарнелл, Том МакГрат ...
  • Мадагаскар 3 / Madagascar 3: Europes Most Wanted (Эрик Дарнелл, Том МакГрат ...
  • Мадагаскар 3 / Madagascar 3: Europes Most Wanted (Эрик Дарнелл, Том МакГрат ...
  • Мадагаскар 3 / Madagascar 3: Europes Most Wanted (Эрик Дарнелл, Конрад Верн ...
  • Мадагаскар 3 / Madagascar 3: Europes Most Wanted (Эрик Дарнелл, Том МакГрат ...
  • Мадагаскар 3 / Madagascar 3: Europes Most Wanted (Эрик Дарнелл, Том МакГрат ...
  • Мадагаскар 3 / Madagascar 3: Europes Most Wanted (Мультфильм, 2012) [HDRip, ...
  • Мадагаскар 3 / Madagascar 3: Europes Most Wanted (Эрик Дарнелл, Том МакГрат ...
  • Мадагаскар 3 / Madagascar 3: Europes Most Wanted (Эрик Дарнелл, Том МакГрат ...
  • [Phone, iPod] Мадагаскар 3 / Madagascar 3: Europes Most Wanted (Эрик Дарнел ...
  • Информация
    Посетители, находящиеся в группе Гости, не могут оставлять комментарии к данной публикации.