вход на сайт

Имя пользователя :
Пароль :

Восстановление пароля Регистрация
[3D] Мадагаскар 3 / Madagascar 3: Europes Most Wanted (Эрик Дарнелл, Том МакГрат, Конрад Вернон, Мультфильм, 2012) [BDRip 1080p, Дубляж, Оригинал (английский), Ukrainian, Sub] [Half SideBySide / Горизонтальная анаморфная стереопара]
Рейтинг:
(голосов: 1)



[img]{THEME}/images/logopost.png[/img]



Мадагаскар 3 / Madagascar 3: Europes Most Wanted
«The world is sick. And we are the doctors.»


Год выпуска: 2012
Страна: США
Производство: DreamWorks Animation, Pacific Data Images (PDI)
Жанр: Мультфильм

Режиссёр: Эрик Дарнелл, Том МакГрат, Конрад Вернон
В ролях: Бен Стиллер, Крис Рок, Дэвид Швиммер, Джада Пинкетт Смит, Саша Барон Коэн, Седрик «Развлекатель», Энди Рихтер, Фрэнсис МакДорманд, Брайан Крэнстон, Мартин Шорт

Перевод: Дубляж, Ukrainian, Оригинал (английский)
Субтитры: Русские, английские

Описание: Лев Алекс, зебра Марти, гиппопотамиха Глория и жираф Мелман, а также король Джулиан, Морис, Морт и Пингвины все еще пытаются вернуться в Нью-Йорк. На этот раз их путь пройдет через Европу, где они откроют свой цирк.

Доп. информация:
Формат 3D: Half SideBySide / Горизонтальная анаморфная стереопара
Порядок ракурсов: Левый ракурс первый


Качество: BDRip 1080p
Продолжительность: 01:33:24 час.


Формат: MKV
Видео кодек: x264
Аудио кодек: AC3
Видео: 1920x1080 (16:9), 23.976 fps, x264 ~ 9 611 kbps avg 0.193 bit/pixel
Аудио#1: 48 kHz, AC3 Dolby Digital, 3/2 (L,C,R,l,r) + LFE ch, ~640 kbps (Дубляж)
Аудио#2: 48 kHz, AC3 Dolby Digital, 3/2 (L,C,R,l,r) + LFE ch, ~640 kbps (Оригинал)
Аудио#3: 48 kHz, AC3 Dolby Digital, 3/2 (L,C,R,l,r) + LFE ch, ~640 kbps (Ukrainian)

Дата премьеры (мир): 18 мая 2012
Дата премьеры (РФ): 7 июня 2012, «Централ Партнершип»

MediaInfo ▼
Общее
Полное имя : Madagascar.3.Europes.Most.Wanted.3D.2012.1080p.BD3DRip.H-SBS.x264.Rus.Ukr.Eng.AC3.z-man.mkv
Формат : Matroska
Версия формата : Version 2
Размер файла : 7,68 Гбайт
Продолжительность : 1 ч. 33 м.
Общий поток : 11,8 Мбит/сек
Дата кодирования : UTC 2012-10-11 20:42:15
Программа кодирования : mkvmerge v3.4.0 (Rapunzel) сборка от May 15 2010 09:38:20
Библиотека кодирования : libebml v0.8.0 + libmatroska v0.9.0

Видео
Идентификатор : 1
Формат : AVC
Формат/Информация : Advanced Video Codec
Профиль формата : [email protected]
Параметр CABAC формата : Да
Параметр ReFrames формата : 4 кадра
Идентификатор кодека : V_MPEG4/ISO/AVC
Продолжительность : 1 ч. 33 м.
Битрейт : 9611 Кбит/сек
Ширина : 1920 пикселей
Высота : 1080 пикселей
Соотношение сторон : 16:9
Режим частоты кадров : Постоянный
Частота кадров : 23,976 кадра/сек
Цветовое пространство : YUV
Субдискретизация насыщенности : 4:2:0
Битовая глубина : 8 бит
Тип развёртки : Прогрессивная
Бит/(Пиксели*Кадры) : 0.193
Размер потока : 6,27 Гбайт (82%)
Заголовок : Madagascar3.Europes.Most.Wanted.3D.2012.1080p.Bluray.H-SBS.X264.RusDub.ENG.AC3.z-man
Библиотека кодирования : x264 core 128 r2216 198a7ea
Настройки программы : cabac=1 / ref=4 / deblock=1:-3:-3 / analyse=0x3:0x113 / me=umh / subme=10 / psy=1 / psy_rd=1.00:0.15 / mixed_ref=1 / me_range=32 / chroma_me=1 / trellis=2 / 8x8dct=1 / cqm=0 / deadzone=21,11 / fast_pskip=1 / chroma_qp_offset=-3 / threads=18 / lookahead_threads=3 / sliced_threads=0 / nr=0 / decimate=1 / interlaced=0 / bluray_compat=0 / constrained_intra=0 / bframes=6 / b_pyramid=2 / b_adapt=1 / b_bias=0 / direct=3 / weightb=1 / open_gop=0 / weightp=2 / keyint=250 / keyint_min=23 / scenecut=40 / intra_refresh=0 / rc_lookahead=40 / rc=crf / mbtree=1 / crf=18.0 / qcomp=0.60 / qpmin=10 / qpmax=69 / qpstep=4 / vbv_maxrate=40000 / vbv_bufsize=30000 / crf_max=0.0 / nal_hrd=none / ip_ratio=1.40 / aq=1:1.00
Default : Да
Forced : Нет

Аудио #1
Идентификатор : 2
Формат : AC-3
Формат/Информация : Audio Coding 3
Расширение режима : CM (complete main)
Параметр Endianness формата : Big
Идентификатор кодека : A_AC3
Продолжительность : 1 ч. 33 м.
Вид битрейта : Постоянный
Битрейт : 640 Кбит/сек
Каналы : 6 каналов
Расположение каналов : Front: L C R, Side: L R, LFE
Частота : 48,0 КГц
Битовая глубина : 16 бит
Метод сжатия : С потерями
Размер потока : 428 Мбайт (5%)
Заголовок : Дубляж (лицензия)
Язык : Russian
Default : Да
Forced : Нет

Аудио #2
И
4aae0a63aede714266525cff4f0cab8e9299712e[3D] Мадагаскар 3 / Madagascar 3: Europes Most Wanted (Эрик Дарнелл, Том МакГрат, Конрад Вернон, Мультфильм, 2012) [BDRip 1080p, Дубляж, Оригинал (английский), Ukrainian, Sub] [Half SideBySide / Горизонтальная анаморфная стереопара] [3D] Мадагаскар 3 / Madagascar 3: Europes Most Wanted (Эрик Дарнелл, Том МакГрат, Конрад Вернон, Мультфильм, 2012) [BDRip 1080p, Дубляж, Оригинал (английский), Ukrainian, Sub] [Half SideBySide / Горизонтальная анаморфная стереопара] " />

Аплоадер: Админ, дата: 12-10-2012, 07:19, торрент скачан: 359 раз

Понравилась раздача? Посмотрите эти:
  • [3D] Мадагаскар 3 / Madagascar 3: Europes Most Wanted (Эрик Дарнелл, Том Ма ...
  • Мадагаскар 3 / Madagascar 3: Europes Most Wanted (Эрик Дарнелл, Том МакГрат ...
  • Мадагаскар 3 / Madagascar 3: Europes Most Wanted (Эрик Дарнелл, Том МакГрат ...
  • Мадагаскар 3 / Madagascar 3: Europes Most Wanted (Эрик Дарнелл, Том МакГрат ...
  • Мадагаскар 3 / Madagascar 3: Europes Most Wanted ( Эрик Дарнелл, Том МакГра ...
  • Мадагаскар 3 / Madagascar 3: Europes Most Wanted (Эрик Дарнелл, Том МакГрат ...
  • Мадагаскар 3 / Madagascar 3: Europes Most Wanted (Эрик Дарнелл, Том МакГрат ...
  • Мадагаскар 3 / Madagascar 3: Europes Most Wanted (Эрик Дарнелл, Том МакГрат ...
  • Мадагаскар 3 / Madagascar 3: Europes Most Wanted (Эрик Дарнелл, Том МакГрат ...
  • [3D] Мадагаскар 3 / Madagascar 3: Europes Most Wanted (Эрик Дарнелл, Том Ма ...
  • [3D] Мадагаскар 3 / Madagascar 3: Europes Most Wanted (Эрик Дарнелл, Том Ма ...
  • Мадагаскар 3 / Madagascar 3: Europes Most Wanted (Эрик Дарнелл, Том МакГрат ...
  • Мадагаскар 3 / Madagascar 3: Europes Most Wanted (Эрик Дарнелл, Том МакГрат ...
  • Мадагаскар 3 / Madagascar 3: Europes Most Wanted (Эрик Дарнелл, Том МакГрат ...
  • Мадагаскар 3 / Madagascar 3: Europes Most Wanted (Эрик Дарнелл, Конрад Верн ...
  • Мадагаскар 3 / Madagascar 3: Europes Most Wanted (Эрик Дарнелл, Том МакГрат ...
  • Мадагаскар 3 / Madagascar 3: Europes Most Wanted (Мультфильм, 2012) [HDRip, ...
  • Мадагаскар 3 / Madagascar 3: Europes Most Wanted (Эрик Дарнелл, Том МакГрат ...
  • Мадагаскар 3 / Madagascar 3: Europes Most Wanted (Эрик Дарнелл, Том МакГрат ...
  • [Phone, iPod] Мадагаскар 3 / Madagascar 3: Europes Most Wanted (Эрик Дарнел ...
  • Информация
    Посетители, находящиеся в группе Гости, не могут оставлять комментарии к данной публикации.