вход на сайт

Имя пользователя :
Пароль :

Восстановление пароля Регистрация
[3D] Кот в сапогах / Puss in Boots (Крис Миллер / Chris Miller, Мультфильм, 2011) [BDrip, Дублированный] [Half OverUnder / Вертикальная анаморфная стереопара]
Рейтинг:
(голосов: 1)



[img]{THEME}/images/logopost.png[/img]



Кот в сапогах / Puss in Boots

Год выпуска: 2011
Страна:
Жанр: Мультфильм, Приключения, Комедия, Семейный

Режиссёр: Крис Миллер / Chris Miller
В ролях: Антонио Бандерас, Сальма Хайек, Зак Галифианакис, Билли Боб Торнтон, эми Седарис, Констанс Мари, Гильермо дель Торо, Рич Дитль, Райан Крего, Том Вилер

Перевод: Дубляж + Украинский дубляж (line)
Субтитры: Русские субтитры

Описание: Мечи пересекутся и сердца будут разбиты в приключениях с одним из самых любимых персонажей из Шрэка — котом в сапогах. Это удалая поездка ранних лет кота в сапогах, когда он объединяется с умным Шалтай-Болтаем и сообразительной Кисой, чтобы украсть знаменитую Гусыню, несущую золотые яйца.


(22,318)

Rip by: Ash61

Проверено на встроенном плейере ТВ Samsung UE-C7000

Доп. информация:
Формат 3D: Half OverUnder (Вертикальная анаморфная стереопара)
Порядок ракурсов: Левый сверху / Правый снизу

Качество: BDrip
Продолжительность: 01:30:13 час.

Формат: MKV
Видео кодек: AVC
Аудио кодек: AC-3
Видео: AVC / 1920х1080p / 23,976 fps / 7156 Kbps / 0.144 bit/pixel
Аудио#1:Русский / AC3 / 48 KHz / 5.1 ch / 448 Kbps (Дубляж)
Аудио#2:Украинский / AC3 / 48 KHz / 2 ch / 224 Kbps (Дубляж, line)
Аудио#3:Английский / AC3 / 48 KHz / 5.1 ch / 640 Kbps

MediaInfo ▼General
UniqueID : 171185317751015192881339087048005305963 (0x80C917CB8BB96DDA9A1A9C1DF26EC66B)
Complete name : PussInBoots(3D)2011.halfOU(ash61).mkv
Format : Matroska
File size : 5.45 GiB
Duration : 1h 30mn
Overall bit rate : 8 640 Kbps
Movie name : Puss in Boots (3D) 2011 (Ash61)
Encoded date : UTC 2012-02-16 15:41:47
Writing application : mkvmerge v3.4.0 (Rapunzel) сборка от May 15 2010 09:38:20
Writing library : libebml v0.8.0 + libmatroska v0.9.0

Video
ID : 1
Format : AVC
Format/Info : Advanced Video Codec
Format profile : [email protected]
Format settings, CABAC : Yes
Format settings, ReFrames : 4 frames
Codec ID : V_MPEG4/ISO/AVC
Duration : 1h 30mn
Bit rate : 7 156 Kbps
Width : 1 920 pixels
Height : 1 080 pixels
Display aspect ratio : 16:9
Frame rate : 23.976 fps
Color space : YUV
Chroma subsampling : 4:2:0
Bit depth : 8 bits
Scan type : Progressive
Bits/(Pixel*Frame) : 0.144
Stream size : 4.51 GiB (83%)
Title : BDrip by Ash61
Writing library : x264 core 119 r2106 07efeb4
Encoding settings : cabac=1 / ref=4 / deblock=1:-3:-3 / analyse=0x3:0x113 / me=umh / subme=9 / psy=1 / psy_rd=1.00:0.15 / mixed_ref=1 / me_range=16 / chroma_me=1 / trellis=2 / 8x8dct=1 / cqm=0 / deadzone=21,11 / fast_pskip=1 / chroma_qp_offset=-3 / threads=3 / sliced_threads=0 / nr=0 / decimate=1 / interlaced=0 / bluray_compat=0 / constrained_intra=0 / bframes=6 / b_pyramid=2 / b_adapt=2 / b_bias=0 / direct=3 / weightb=1 / open_gop=0 / weightp=2 / keyint=250 / keyint_min=23 / scenecut=40 / intra_refresh=0 / rc_lookahead=60 / rc=crf / mbtree=1 / crf=17.0 / qcomp=0.70 / qpmin=0 / qpmax=69 / qpstep=4 / vbv_maxrate=40000 / vbv_bufsize=40000 / crf_max=0.0 / nal_hrd=none / ip_ratio=1.40 / aq=1:0.70

Audio #1
ID : 2
Format : AC-3
Format/Info : Audio Coding 3
Mode extension : CM (complete main)
Codec ID : A_AC3
Duration : 1h 30mn
Bit rate mode : Constant
Bit rate : 448 Kbps
Channel(s) : 6 channels
Channel positions : Front: L C R, Side: L R, LFE
Sampling rate : 48.0 KHz
Bit depth : 16 bits
Compression mode : Lossy
Stream size : 289 MiB (5%)
Title : Лицензия
Language : Russian

Audio #2
ID : 3
Format : AC-3
Format/Info : Audio Coding 3
Mode extension : CM (complete
b17603f344018cb6f41cdfe27f77af0abcbb9bf7[3D] Кот в сапогах / Puss in Boots (Крис Миллер / Chris Miller, Мультфильм, 2011) [BDrip, Дублированный] [Half OverUnder / Вертикальная анаморфная стереопара] [3D] Кот в сапогах / Puss in Boots (Крис Миллер / Chris Miller, Мультфильм, 2011) [BDrip, Дублированный] [Half OverUnder / Вертикальная анаморфная стереопара] " />

Аплоадер: Админ, дата: 17-02-2012, 17:02, торрент скачан: 359 раз

Понравилась раздача? Посмотрите эти:
  • Кот в сапогах / Puss in Boots (Крис Миллер, Мультфильм, комедия, приключени ...
  • Кот в сапогах / Puss in Boots (Крис Миллер, Мультфильм, 2011) [BDRip - AVC, ...
  • Кот в сапогах / Puss in Boots (Крис Миллер, Мультфильм, 2011) [BDRip - AVC, ...
  • Кот в сапогах / Puss in Boots (Крис Миллер, мультфильм, 2011) [ВDRip-AVC, Д ...
  • Кот в сапогах / Puss in Boots (Крис Миллер, мультфильм, 2011) [ВDRip-AVC, П ...
  • Кот в сапогах / Puss in Boots (Крис Миллер, Мультфильм, комедия, приключени ...
  • [3D] Крылатые монстры 3Д / Flying Monsters 3D (Мэттью Диас, Документальны ...
  • [3D] Смешарики. Начало (Денис Чернов, Мультфильм, 2011) [BDrip, Дублированн ...
  • [3D] Приключения Тинтина: Тайна Единорога / The Adventures of Tintin (Стиве ...
  • [3D] Делай ноги 2 / Happy Feet Two (Джордж Миллер / George Miller, Мультфил ...
  • [3D] Кот и цыплёнок / I Tawt I Taw а Puddy Tat (Мэттью ОКаллаган / Matthew ...
  • [3D] Кот в сапогах 3D / Puss in Boots 3D (Крис Миллер, Мультфильм, 2011) [B ...
  • [3D] Другой мир: Пробуждение / Underworld: Awakening (Монс Морлинд, Бьёрн С ...
  • [3D] Глаз ребенка / Childs Eye (Оксид Пан, ужасы, 2010) [BDRip, Дублированн ...
  • [3D] Чудеса океана в 3Д / Ocean Wonderland 3D (Жан-Жак Мантелло / Jean-Jacq ...
  • [3D] От винта 3D (Ольга Лопато, Мультфильм, комедия, приключения, 2012) [BD ...
  • [3D] Лас-Вегас в 3Д / Las Vegas 3D (Benjamin Eicher, Timo Joh. Mayer, Докум ...
  • [3D] Кукарача 3D (Армен Адилханян, Мультфильм, Комедия, 2011) [BDRip-AVC, Н ...
  • [3D] Кошмар перед Рождеством 3D / The Nightmare Before Christmas 3D (Генри ...
  • Кот в сапогах / Puss in Boots (Крис Миллер / Chris Miller, мультфильм, фэнт ...
  • [iPhone, iPod] Кот в сапогах / Puss in Boots (Крис Миллер, мультфильм, 2011 ...
  • Кот в сапогах / Puss in Boots (Крис Миллер, мультфильм, 2011) [ВDRip, Полно ...
  • Кот в сапогах / Puss in Boots (Крис Миллер, мультфильм, комедия, приключени ...
  • [MULT] Кот в сапогах / Puss in Boots (Крис Миллер / Chris Miller) [2011, му ...
  • Кот в сапогах / Puss in Boots (Крис Миллер, Мультфильм, комедия, приключени ...
  • Информация
    Посетители, находящиеся в группе Гости, не могут оставлять комментарии к данной публикации.