вход на сайт

Имя пользователя :
Пароль :

Восстановление пароля Регистрация
[3D] Рио / Rio (Карлос Салдана , мультфильм, мюзикл, комедия, приключения, семейный, 2011) [BDrip, Профессиональный (дублированный)][OverUnder / Вертикальная стереопара]
Рейтинг:
(голосов: 1)



[img]{THEME}/images/logopost.png[/img]



Рио 3Д/Rio 3D

Год выпуска: 2011
Страна: CША
Производство: 20th Century Fox Animation, Blue Sky Studios
Жанр: мультфильм, мюзикл, комедия, приключения, семейный

Режиссёр: Карлос Салдана / Carlos Saldanha
Роли озвучивали: Джесси Айзенберг / Jesse Eisenberg (Blu), Энн Хэтэуэй / Anne Hathaway (Jewel), Джейми Фокс / Jamie Foxx (Nico), Уилл Ай Эм / Will i Am (Pedro), Родриго Санторо / Rodrigo Santoro (Tulio), Карен Дишер / Karen Disher (Mother Bird), Карлос Понсе / Carlos Ponce (Marcel), Джордж Лопез / George Lopez (Rafael), Джемейн Клемент / Jemaine Clement (Nigel), Джейсон Фриччион / Jason Fricchione (Truck Driver)
Роли дублировали: Павел Деревянко, Татьяна Шилина, Илья Колесников, Аркадий Джем, Лиза Мартиросова


Перевод: Профессиональный (дублированный).
Субтитры: Русские (форсированные, полные), английские, французские, испанские, португальские, голландские, шведские.

Описание: Попугай-зануда оставляет свою уютную сытую жизнь в клетке и из Миннесоты отправляется в Рио-де-Жанейро, город грез всех и каждого. Неминуемые встречи, препятствия, опасности и любовь к последней представительнице его рода заставляют нашего героя по-другому посмотреть на мир и из скучного домоседа превратиться в милого симпатягу, узнавшего цену дружбе и смелости.Качество: BDrip
Продолжительность: 01:26:38 час.

Формат: MKV
Формат 3D: OverUnder / Вертикальная стереопара
Видео кодек: x264
Аудио кодек: AC3
Видео: 1920x1600 / MPEG4 Video (H264) / 23.976 fps / 13.3 Mbps / Bits/(Pixel*Frame) : 0.181
Аудио1: AC3 / 5.1 / 48 kHz / 640 kbps / 16 bit |Русский (Дубляж, лицензия)|
Аудио2: AC3 / 5.1 / 48 kHz / 384 kbps / 16 bit |Українська (Дубляж, ліцензія)|
Аудио3: AC3 / 5.1 / 48 kHz / 640 kbps / 16 bit |Английский (Оригинал)|

MediaInfo ▼General
Complete name : D:Rio.3D.2011.BD3DRip.1080p.OU.x264.AC3.3D-RuGroup.mkv
Format : Matroska
File size : 10.3 GiB
Duration : 1h 35mn
Overall bit rate : 15.3 Mbps
Movie name : Rio.3D.2011.BD3DRip.1080p.OU.x264.AC3.3D-RuGroup
Encoded date : UTC 2011-07-23 17:07:08
Writing application : mkvmerge v2.9.9 (Tutu) built on Nov 25 2009 21:13:32
Writing library : libebml v0.7.9 + libmatroska v0.8.1
Video
ID : 1
Format : AVC
Format/Info : Advanced Video Codec
Format profile : [email protected]
Format settings, CABAC : Yes
Format settings, ReFrames : 5 frames
Codec ID : V_MPEG4/ISO/AVC
Duration : 1h 35mn
Bit rate : 13.3 Mbps
Width : 1 920 pixels
Height : 1 600 pixels
Display aspect ratio : 1.200
Frame rate : 23.976 fps
Original frame rate : 25.000 fps
Color space : YUV
Chroma subsampling : 4:2:0
Bit depth : 8 bits
Scan type : Progressive
Bits/(Pixel*Frame) : 0.181
Stream size : 8.94 GiB (87%)
Title : Rio.3D.2011.BD3DRip.1080p.OU.x264.AC3.3D-RuGroup
Writing library : x264 core 113 r1884 7313bb5
Encoding settings : cabac=1 / ref=5 / deblock=1:-1:-1 / analyse=0x3:0x113 / me=umh / subme=9 / psy=1 / psy_rd=1.00:0.15 / mixed_ref=1 / me_range=16 / chroma_me=1 / trellis=2 / 8x8dct=1 / cqm=0 / deadzone=21,11 / fast_pskip=1 / chroma_qp_offset=-3 / threads=3 / sliced_threads=0 / nr=0 / decimate=1 / interlaced=0 / constrained_intra=0 / bframes=6 / b_pyramid=2 / b_adapt=2 / b_bias=0 / direct=3 / weightb=1 / open_gop=0 / weightp=2 / keyint=250 / keyint_min=25 / scenecut=40 / intra_refresh=0 / rc_lookahead=40 / rc=crf / mbtree=1 / crf=17.0 / qcomp=0.60 / qpmin=0 / qpmax=51 / qpstep=4 / ip_ratio=1.40 / aq=1:1.00
Audio #1
ID : 2
Format : AC-3
Format/Info : Audio Coding 3
Mode extension : CM (complete main)
Codec ID : A_AC3
Duration : 1h 35mn
Bit rate mode : Constant
Bit rate : 640 Kbps
Channel(s) : 6 channels
Channel positions : Front: L C R, Side: L R, LFE
Sampling rate : 48.0 KHz
Bit depth : 16 bits
Compression mode : Lossy
Stream size : 439 MiB (4%)
Title : Русский
Language : Russian
Audio #2
ID : 3
Format : AC-3
Format/Info : Audio Coding 3
Mode extension : CM (complete main)
Codec ID : A_AC3
Duration : 1h 35mn
Bit rate mode : Constant
Bit rate : 384 Kbps
Channel(s) : 6 channels
Channel positi
97b7e6a1cced393adba53fe38d27dbaa85d1e478[3D] Рио / Rio (Карлос Салдана , мультфильм, мюзикл, комедия, приключения, семейный, 2011) [BDrip, Профессиональный (дублированный)][OverUnder / Вертикальная стереопара] [3D] Рио / Rio (Карлос Салдана , мультфильм, мюзикл, комедия, приключения, семейный, 2011) [BDrip, Профессиональный (дублированный)][OverUnder / Вертикальная стереопара] " />

Аплоадер: Админ, дата: 4-01-2012, 18:35, торрент скачан: 359 раз

Понравилась раздача? Посмотрите эти:
  • Рио / Rio (Карлос Салдана, мультфильм, мюзикл, комедия, приключения, семейн ...
  • Рио / Rio (Карлос Салдана, Мультфильм, комедия, приключения, семейный, 2011 ...
  • Рио / Rio (Карлос Салдана, мультфильм, 2011) [BDRip-AVC, Dub + Original + S ...
  • Рио / Rio (Карлос Салдана, мультфильм, мюзикл, комедия, приключения, семейн ...
  • [3D] Рио / Rio (Карлос Салдана, Mультфильм, мюзикл, комедия, приключения, с ...
  • [3D] Кот и цыплёнок / I Tawt I Taw а Puddy Tat (Мэттью ОКаллаган / Matthew ...
  • Рио / Rio (Карлос Салдана, Мультфильм, 2011) [BDRip 720p, дублированный]
  • [PSP VIDEO] Рио / Rio (Карлос Салдана, мультфильм, 2011) [DVDRip, дубляж]
  • Рио / Rio (Карлос Салдана, Мультфильм, комедия, приключения, семейный, 2011 ...
  • Рио / Rio (Карлос Салдана, Мультфильм, комедия, приключения, семейный, 2011 ...
  • Рио / Rio (Карлос Салдана, мультфильм, мюзикл, комедия, приключения, семейн ...
  • Рио / Rio (Карлос Салдана, мультфильм, мюзикл, комедия, приключения, семейн ...
  • Рио / Rio (Карлос Салдана, Мультфильм, комедия, приключения, семейный, 2011 ...
  • Рио / Rio (Карлос Салдана, Мультфильм, комедия, приключения, семейный, 2011 ...
  • Рио / Rio (Карлос Салдана, мультфильм, мюзикл, комедия, приключения, семейн ...
  • Рио / Rio (Карлос Салдана, мультфильм, мюзикл, комедия, приключения, семейн ...
  • Рио / Rio (Карлос Салдана, мультфильм, мюзикл, комедия, приключения, семейн ...
  • [3D] Рио / Rio (Карлос Салдана, мультфильм, мюзикл, комедия, приключения, с ...
  • РИО / RIO (Карлос Салдана, мультфильм, 2011) [DVD9, дублированный]
  • [3D] Рио 3D / Rio 3D (Карлос Салдана, Мультфильм, 2011) [Blu-Ray Disc 1080p ...
  • Информация
    Посетители, находящиеся в группе Гости, не могут оставлять комментарии к данной публикации.