вход на сайт

Имя пользователя :
Пароль :

Восстановление пароля Регистрация
[3D] Кунг-фу Панда 2 3Д / Kung Fu Panda 2 3D (Дженнифер Ю / Jennifer Yuh, мультфильм, комедия, 2011) [BDrip-AVC, Профессиональный (полное дублирование)][Half OverUnder / Вертикальная анаморфная стереопара]
Рейтинг:
(голосов: 1)



[img]{THEME}/images/logopost.png[/img]



Кунг-фу Панда 2 3Д Kung Fu Panda 2 3D

Год выпуска: 2011
Страна: США
Производство: DreamWorks Animation SKG
Жанр: Мультфильм, Боевик, Приключения, Комедия, Семейный

Режиссёр: Дженнифер Ю / Jennifer Yuh

Перевод: Профессиональный (дублированный)
Роли дублировали (Озвучивали):
По - Михаил Галустян (Jack Black)
Тигрица - Ольга Зубкова (Angelina Jolie)
Шифу - Александр Хотченков (Dustin Hoffman)
Шен - Василий Дахненко (Gary Oldman)
Обезьяна - Диомид Виноградов (Jackie Chan)
Мантис - Олег Куценко (Seth Rogen)
Вайпер - (Lucy Liu)
Крэйн - Александр Гаврилин (David Cross)
Мистер Пинг - Олег Форостенко (James Hong)
Мастер Окс - Пётр Иващенко (Dennis Haysbert)
Мастер Крок - Дмитрий Поляновский (Jean-Claude Van Damme)
Субтитры: Отсутствуют

Описание: Панда По наконец-то исполнит свою мечту, станет Воином Дракона и со своими друзьями и мастерами кунг-фу — Неистовой Пятеркой — защитит Великую Долину от страшного злодея и его легиона…

Доп. информация: Русская дорога имеет маленький глюк ~ 49:04-49:13 (как и на других релизах мульта)(на лицензии, скорее всего, будет эта же дорога, но без указанного глюка).

IMDB: рейтинг 7.510 (41 351 голосов)
КиноПоиск: рейтинг 7.6 (19 515 голосов)

Скачать:

Проверено на встроенном плейере ТВ Samsung UE-C7000
Проверено на встроенном плейере ТВ LG LW-575S

"MediaInfo" ▼
General
Format : Matroska
File size : 5.64 GiB
Duration : 1h 30mn
Overall bit rate : 8 938 Kbps
Movie name : Kung Fu Panda 2 - 3D
Encoded date : UTC 2011-12-10 11:46:53
Writing application : mkvmerge v3.4.0 (Rapunzel) сборка от May 15 2010 09:38:20
Writing library : libebml v0.8.0 + libmatroska v0.9.0

Video
ID : 1
Format : AVC
Format/Info : Advanced Video Codec
Format profile : [email protected]
Format settings, CABAC : Yes
Format settings, ReFrames : 4 frames
Codec ID : V_MPEG4/ISO/AVC
Duration : 1h 30mn
Bit rate : 7 672 Kbps
Width : 1 920 pixels
Height : 1 080 pixels
Display aspect ratio : 16:9
Frame rate : 23.976 fps
Color space : YUV
Chroma subsampling : 4:2:0
Bit depth : 8 bits
Scan type : Progressive
Bits/(Pixel*Frame) : 0.154
Stream size : 4.84 GiB (86%)
Writing library : x264 core 113 r1884 7313bb5
Encoding settings : cabac=1 / ref=4 / deblock=1:-3:-3 / analyse=0x3:0x113 / me=umh / subme=9 / psy=1 / psy_rd=1.00:0.15 / mixed_ref=1 / me_range=16 / chroma_me=1 / trellis=2 / 8x8dct=1 / cqm=0 / deadzone=21,11 / fast_pskip=1 / chroma_qp_offset=-3 / threads=3 / sliced_threads=0 / nr=0 / decimate=1 / interlaced=0 / constrained_intra=0 / bframes=6 / b_pyramid=2 / b_adapt=2 / b_bias=0 / direct=3 / weightb=1 / open_gop=0 / weightp=2 / keyint=250 / keyint_min=23 / scenecut=40 / intra_refresh=0 / rc_lookahead=60 / rc=crf / mbtree=1 / crf=17.0 / qcomp=0.70 / qpmin=0 / qpmax=69 / qpstep=4 / ip_ratio=1.40 / aq=1:0.70

Audio #1
ID : 2
Format : AC-3
Format/Info : Audio Coding 3
Mode extension : CM (complete main)
Codec ID : A_AC3
Duration : 1h 30mn
Bit rate mode : Constant
Bit rate : 448 Kbps
Channel(s) : 6 channels
Channel positions : Front: L C R, Side: L R, LFE
Sampling rate : 48.0 KHz
Bit depth : 16 bits
Compression mode : Lossy
Video delay : 24ms
Stream size : 290 MiB (5%)
Language : Russian

Audio #2
ID : 3
Format : AC-3
Format/Info : Audio Coding 3
Mode extension : CM (complete main)
Codec ID : A_AC3
Duration : 1h 30mn
Bit rate mode : Constant
Bit rate : 640 Kbps
Channel(s) : 6 channels
Channel positions : Front: L C R, Side: L R, LFE
Sampling rate : 48.0 KHz
Bit depth : 16 bits
Compression mode : Lossy
Stream size : 414 MiB (7%)
Language : English

Menu
00
4e7684f3790aa0cf13cf0289e7ac5c955ccc9a2b[3D] Кунг-фу Панда 2 3Д / Kung Fu Panda 2 3D (Дженнифер Ю / Jennifer Yuh, мультфильм, комедия, 2011) [BDrip-AVC, Профессиональный (полное дублирование)][Half OverUnder / Вертикальная анаморфная стереопара] [3D] Кунг-фу Панда 2 3Д / Kung Fu Panda 2 3D (Дженнифер Ю / Jennifer Yuh, мультфильм, комедия, 2011) [BDrip-AVC, Профессиональный (полное дублирование)][Half OverUnder / Вертикальная анаморфная стереопара] " />

Аплоадер: Админ, дата: 12-12-2011, 12:47, торрент скачан: 359 раз

Понравилась раздача? Посмотрите эти:
  • Кунг-фу Панда 2 / Kung Fu Panda 2 (Дженнифер Ю, мультфильм, боевик, комеди ...
  • Кунг-фу Панда 2 / Kung Fu Panda 2 (Дженнифер Ю,мультфильм,боевик,комедия,пр ...
  • Кунг-фу Панда 2 / Kung Fu Panda 2 (Дженнифер Ю / Jennifer Yuh, мультфильм, ...
  • [3D] Гибрид в 3Д / Hybrid 3D (Эрик Валетт / Eric Valette) [2010, Триллер, У ...
  • [3D] Пункт назначения 4 3Д / The Final Destination 3D (Дэвид Р. Эллис / Dav ...
  • [3D] Первый мститель 3Д / Captain America: The First Avenger 3D (Джо Джонст ...
  • [3D] Тайна красной планеты / Mars Needs Moms (Саймон Уэллс, мультфильм, фан ...
  • [3D] LG Demo Disc 3D (Демо, 2011) [BDrip-AVC 1080p ][Оригинал][Anamorph Ov ...
  • [3D] Кунг-фу Панда 2 / Kung Fu Panda 2 (Дженнифер Ю, мультфильм, боевик, ко ...
  • [3D] Крылатые монстры 3Д / Flying Monsters 3D (Мэттью Диас, Документальны ...
  • [3D] Кот в сапогах / Puss in Boots (Крис Миллер / Chris Miller, Мультфильм, ...
  • [3D] Смешарики. Начало (Денис Чернов, Мультфильм, 2011) [BDrip, Дублированн ...
  • [3D] Приключения Тинтина: Тайна Единорога / The Adventures of Tintin (Стиве ...
  • [3D] Кот и цыплёнок / I Tawt I Taw а Puddy Tat (Мэттью ОКаллаган / Matthew ...
  • [3D] Иудейский лев 3Д / The Lion Of Judah 3D (Дерек Брум, Роджер Хоукинс / ...
  • [3D] Кукарача 3D (Армен Адилханян, Мультфильм, Комедия, 2011) [BDRip-AVC, Н ...
  • Кунг-фу Панда 2 / Kung Fu Panda 2 (Дженнифер Ю, мультфильм, боевик, комедия ...
  • Кунг-фу Панда 2 / Kung Fu Panda 2 (Дженнифер Ю, мультфильм, боевик, комедия ...
  • Кунг-фу Панда / Kung Fu Panda 1901x808(Марк Осборн, Джон Стивенсон, мультфи ...
  • Кунг-фу Панда 2 / Kung Fu Panda 2 (Дженнифер Ю , мультфильм, боевик, комеди ...
  • Кунг-фу Панда 2 / Kung Fu Panda 2 (Дженнифер Ю, мультфильм, боевик, комеди ...
  • Кунг-фу Панда 2 / Kung Fu Panda 2 (Дженнифер Ю,мультфильм,боевик,комедия,пр ...
  • Кунг-фу Панда 2 / Kung Fu Panda 2 (Дженнифер Ю / Jennifer Yuh, мультфильм, ...
  • Кунг-фу Панда 2 / Kung Fu Panda 2 (Дженнифер Ю, мультфильм, боевик, комедия ...
  • [3D] Кунг-фу Панда 2 3D / Kung Fu Panda 2 3D (Дженнифер Ю, Мультфильм, 2011 ...
  • Информация
    Посетители, находящиеся в группе Гости, не могут оставлять комментарии к данной публикации.