вход на сайт

Имя пользователя :
Пароль :

Восстановление пароля Регистрация
[3D] Тайна красной планеты / Mars Needs Moms (Саймон Уэллс, мультфильм, фантастика, боевик, комедия, приключения, семейный, 2011) [BDrip-AVC, Профессиональный (дублированный)][Half OverUnder / Вертикальная анаморфная стереопара]
Рейтинг:
(голосов: 1)



[img]{THEME}/images/logopost.png[/img]



Tайна красной планеты 3Д | Мars Needs Мoms 3D

Год выпуска: 2011
Страна: США
Производство: Walt Disney Productions, ImageMovers Digital
Жанр: мультфильм, фантастика, комедия, приключения

Режиссёр: Саймон Уэллс / Simon Wells
В ролях:Сет Грин / Seth Green (Milo), Дэн Фоглер / Dan Fogler (Gribble), Джоан Кьюсак / Joan Cusack (Mom), Элизабет Арнуа / Elisabeth Harnois (Ki), Мелинда Стерлинг / Mindy Sterling (Supervisor), Кевин Кахун / Kevin Cahoon (Wingnut), Том Эверетт Скотт / Tom Everett Scott (Dad), Жаки Барнбрук / Jacquie Barnbrook (Martian), Мэттью Хенерсон / Matthew Henerson (Martian), Адам Дженнингс / Adam Jennings (Martian)

Перевод: Диомид Виноградов (Дэн Фоглер), Анастасия Лапина (Джоан Кьюсак), Жанна Агузарова (Элизабет Арнуа)
Озвучка: Профессиональный (дублированный)
Субтитры: (внешние, srt): Русские, українські, English

Описание: Есть мерзкую брокколи, выносить мусор, рано ложиться спать — кому вообще нужны мамы, заставляющие это делать? Так думал Майло, пока не обнаружил, что его маму похитили марсиане. Тут-то и оказалось, что ему предстоит отправиться на другую планету, чтобы найти маму и вернуть ее домой.

Проверено на встроенном плейере ТВ LG LW-575S



IMDB: рейтинг 5.010 (5391голосов)
КиноПоиск: рейтинг 5.8(3391голосов)

Скачать:
"MediaInfo" ▼
General
Format : Matroska
File size : 5.18 GiB
Duration : 1h 28mn
Overall bit rate : 8 428 Kbps
Movie name : Mars Needs Moms 3D
Encoded date : UTC 2011-08-05 09:22:38
Writing application : mkvmerge v3.4.0 (Rapunzel) сборка от May 15 2010 09:38:20
Writing library : libebml v0.8.0 + libmatroska v0.9.0

Video
ID : 1
Format : AVC
Format/Info : Advanced Video Codec
Format profile : [email protected]
Format settings, CABAC : Yes
Format settings, ReFrames : 4 frames
Codec ID : V_MPEG4/ISO/AVC
Duration : 1h 28mn
Bit rate : 6 852 Kbps
Width : 1 920 pixels
Height : 1 080 pixels
Display aspect ratio : 16:9
Frame rate : 23.976 fps
Color space : YUV
Chroma subsampling : 4:2:0
Bit depth : 8 bits
Scan type : Progressive
Bits/(Pixel*Frame) : 0.138
Stream size : 4.22 GiB (81%)
Writing library : x264 core 113 r1884 7313bb5
Encoding settings : cabac=1 / ref=4 / deblock=1:-3:-3 / analyse=0x3:0x113 / me=umh / subme=9 / psy=1 / psy_rd=1.00:0.15 / mixed_ref=1 / me_range=16 / chroma_me=1 / trellis=2 / 8x8dct=1 / cqm=0 / deadzone=21,11 / fast_pskip=1 / chroma_qp_offset=-3 / threads=3 / sliced_threads=0 / nr=0 / decimate=1 / interlaced=0 / constrained_intra=0 / bframes=6 / b_pyramid=2 / b_adapt=2 / b_bias=0 / direct=3 / weightb=1 / open_gop=0 / weightp=2 / keyint=250 / keyint_min=23 / scenecut=40 / intra_refresh=0 / rc_lookahead=60 / rc=crf / mbtree=1 / crf=18.0 / qcomp=0.70 / qpmin=1 / qpmax=51 / qpstep=4 / ip_ratio=1.40 / aq=1:1.00

Audio #1
ID : 2
Format : AC-3
Format/Info : Audio Coding 3
Mode extension : CM (complete main)
Codec ID : A_AC3
Duration : 1h 28mn
Bit rate mode : Constant
Bit rate : 384 Kbps
Channel(s) : 6 channels
Channel positions : Front: L C R, Side: L R, LFE
Sampling rate : 48.0 KHz
Bit depth : 16 bits
Compression mode : Lossy
Stream size : 242 MiB (5%)
Language : Russian

Audio #2
ID : 3
Format : AC-3
Format/Info : Audio Coding 3
Mode extension : CM (complete main)
Codec ID : A_AC3
Duration : 1h 28mn
Bit rate mode : Constant
Bit rate : 384 Kbps
Channel(s) : 6 channels
Channel positions : Front: L C R, Side: L R, LFE
Sampling rate : 48.0 KHz
Bit depth : 16 bits
Compression mode : Lossy
Stream size : 242 MiB (5%)
Language : Ukrainian

Audio #3
ID : 4
Format : AC-3
Format/Info : Audio Coding 3
Mode extension : CM (complete main)
Codec ID : A_AC3
Duration : 1h 28mn
Bit rate mode : Constant
Bit rate : 640 Kbps
Channel(s) : 6 channels
Channel positions : Front: L C R, Side: L R, LFE
Sampling rate : 48.0 KHz
Bit depth : 16 bi
9385d16a9044840644bb058f264037701d9564d1[3D] Тайна красной планеты / Mars Needs Moms (Саймон Уэллс, мультфильм, фантастика, боевик, комедия, приключения, семейный, 2011) [BDrip-AVC, Профессиональный (дублированный)][Half OverUnder / Вертикальная анаморфная стереопара] [3D] Тайна красной планеты / Mars Needs Moms (Саймон Уэллс, мультфильм, фантастика, боевик, комедия, приключения, семейный, 2011) [BDrip-AVC, Профессиональный (дублированный)][Half OverUnder / Вертикальная анаморфная стереопара] " />

Аплоадер: Админ, дата: 5-12-2011, 21:17, торрент скачан: 359 раз

Понравилась раздача? Посмотрите эти:
  • Тайна Красной Планеты / Mars Needs Moms (Саймон Уэллс , Мультфильм, 2011 г. ...
  • Тайна красной планеты / Mars Needs Moms (Саймон Уэллс, фантастика, боевик, ...
  • Тайна красной планеты / Mars Needs Moms (Саймон Уэллс, мультфильм, фантасти ...
  • [3D] Пункт назначения 4 3Д / The Final Destination 3D (Дэвид Р. Эллис / Dav ...
  • [3D] Первый мститель 3Д / Captain America: The First Avenger 3D (Джо Джонст ...
  • [3D] Кунг-фу Панда 2 3Д / Kung Fu Panda 2 3D (Дженнифер Ю / Jennifer Yuh, м ...
  • [3D] Крылатые монстры 3Д / Flying Monsters 3D (Мэттью Диас, Документальны ...
  • [3D] Кот в сапогах / Puss in Boots (Крис Миллер / Chris Miller, Мультфильм, ...
  • [3D] Смешарики. Начало (Денис Чернов, Мультфильм, 2011) [BDrip, Дублированн ...
  • [3D] Приключения Тинтина: Тайна Единорога / The Adventures of Tintin (Стиве ...
  • [3D] Кот и цыплёнок / I Tawt I Taw а Puddy Tat (Мэттью ОКаллаган / Matthew ...
  • [3D] Глаз ребенка / Childs Eye (Оксид Пан, ужасы, 2010) [BDRip, Дублированн ...
  • [3D] Миссия Дарвина / G-Force 3D (Хойт Йетмен, мультфильм, фэнтези, боевик, ...
  • Тайна красной планеты / Mars Needs Moms (Саймон Уэллс, мультфильм, фантасти ...
  • Тайна красной планеты / Mars Needs Moms (Саймон Уэллс, мультфильм, фантасти ...
  • Тайна красной планеты / Mars Needs Moms (Саймон Уэллс, мультфильм, фантасти ...
  • Тайна красной планеты / Mars Needs Moms (Саймон Уэллс, мультфильм, фантасти ...
  • Тайна красной планеты / Mars Needs Moms (Саймон Уэллс, мультфильм, фантасти ...
  • Тайна красной планеты / Mars Needs Moms (Саймон Уэллс, мультфильм, фантасти ...
  • Тайна красной планеты / Mars Needs Moms (Саймон Уэллс, мультфильм, фантасти ...
  • Информация
    Посетители, находящиеся в группе Гости, не могут оставлять комментарии к данной публикации.