вход на сайт

Имя пользователя :
Пароль :

Восстановление пароля Регистрация
[3D] Мартышки в космосе: Ответный удар / Space Chimps 2: Zartog Strikes Back (Джон Х. Уильямс, мультфильм, комедия, семейный, 2010) [BDRip 1080p, Профессиональный (дублированный) + Оригинал] [Half OverUnder / Вертикальная анаморфная стереопара]
Рейтинг:
(голосов: 1)



[img]{THEME}/images/logopost.png[/img]



Мартышки в космосе: Ответный удар / Space Chimps 2: Zartog Strikes Back


Год выпуска: 2010
Страна: США
Производство: Wonderworld Studios, Vanguard Animation, Prana Studios
Жанр: мультфильм, фантастика, комедия, приключения, семейный

Режиссёр: Джон Х. Уильямс
В ролях: Том Кенни, Зак Шэда, Патрик Варбертон, Шерил Хайнс, Карлос Алазраки, Лаура Бэйли, Джон Ди Маджио, Стенли Туччи, Патрик Брин, Джейн Линч

Перевод: Профессиональный (дублированный) + Оригинал (английский)
Субтитры: Русские (Full), вшитые, отключаемые, UTF-8

Описание: Продолжение анимационной комедии 2008 года о космических приключениях мартышек. На этот раз к звездолетной обезьяньей команде, состоящей из Хэма, Луны и Титана, присоединяется новичок Комет, мечтающий стать настоящим космическим шимпанзе. Он отправляется на планету Мангор, где знакомится с инопланетянином Киловаттом. Когда злодей Зартог пытается захватить власть, наступает время для Комета проявить себя. Разумеется, не без помощи новых друзей.





Качество: BDRip 1080p
Продолжительность: 01:15:45

Формат: MKV
Формат 3D: Half OverUnder / Вертикальная анаморфная стереопара
Порядок ракурсов: левый ракурс первый

Видео кодек: x264
Аудио кодек: AC3
Свойства видео: AVC, 1920х1080p (16:9), 23,976 fps, 8795 Kbps, 0.177 bit/pix
Свойства аудио : AC3, 48 KHz, 5.1 ch, 640 Kbps
Свойства аудио : AC3, 48 KHz, 5.1 ch, 640 Kbps

MediaInfo ▼
TextОбщее
Уникальный идентификатор : 234731318964907236705492261354089804933 (0xB0979B8C32B417129FE90AADAC10F485)
Формат : Matroska
Версия формата : Version 2
Размер файла : 5,44 Гбайт
Продолжительность : 1 ч. 15 м.
Общий поток : 10,3 Мбит/сек
Название фильма : Space Chimps 2 3D (2010) by Killbrain
Дата кодирования : UTC 2012-10-08 17:39:32
Программа кодирования : mkvmerge v5.8.0 (No Sleep / Pillow) built on Sep 2 2012 15:37:04
Библиотека кодирования : libebml v1.2.3 + libmatroska v1.3.0

Видео
Идентификатор : 1
Формат : AVC
Формат/Информация : Advanced Video Codec
Профиль формата : [email protected]
Параметр CABAC формата : Да
Параметр ReFrames формата : 4 кадра
Идентификатор кодека : V_MPEG4/ISO/AVC
Продолжительность : 1 ч. 15 м.
Битрейт : 8795 Кбит/сек
Ширина : 1920 пикселей
Высота : 1080 пикселей
Соотношение сторон : 16:9
Режим частоты кадров : Постоянный
Частота кадров : 23,976 кадра/сек
Цветовое пространство : YUV
Субдискретизация насыщенности : 4:2:0
Битовая глубина : 8 бит
Тип развёртки : Прогрессивная
Бит/(Пиксели*Кадры) : 0.177
Размер потока : 4,65 Гбайт (86%)
Заголовок : Space Chimps 2 3D (2010)
Библиотека кодирования : x264 core 128 r2216 198a7ea
Настройки программы : cabac=1 / ref=4 / deblock=1:-3:-3 / analyse=0x3:0x113 / me=umh / subme=9 / psy=1 / psy_rd=1.00:0.15 / mixed_ref=1 / me_range=16 / chroma_me=1 / trellis=2 / 8x8dct=1 / cqm=0 / deadzone=21,11 / fast_pskip=1 / chroma_qp_offset=-3 / threads=3 / lookahead_threads=1 / sliced_threads=0 / slices=4 / nr=0 / decimate=1 / interlaced=0 / bluray_compat=0 / constrained_intra=0 / bframes=6 / b_pyramid=2 / b_adapt=2 / b_bias=0 / direct=3 / weightb=1 / open_gop=0 / weightp=2 / keyint=240 / keyint_min=23 / scenecut=40 / intra_refresh=0 / rc_lookahead=60 / rc=crf / mbtree=1 / crf=17.0 / qcomp=0.70 / qpmin=0 / qpmax=69 / qpstep=4 / vbv_maxrate=40000 / vbv_bufsize=40000 / crf_max=0.0 / nal_hrd=none / frame-packing=4 / ip_ratio=1.40 / aq=1:0.70
Язык : English
Default : Да
Forced : Нет

Аудио #1
Идентификатор : 2
Формат : AC-3
Формат/Информация : Audio Coding 3
Расширение режима : CM (complete main)
Параметр Endianness формата : Big
Идентификатор кодека : A_AC3
Продолжительность : 1 ч. 15 м.
Вид битрейта : Постоянный
Битрейт : 640 Кбит/сек
Каналы : 6 каналов
Расположение каналов : Front: L C R, Side: L R, LFE
Частота : 48,0 КГц
Битовая глубина : 16 бит
Метод сжатия : С потерями
Размер потока : 347 Мбайт (6%)
Заголовок : AC3 / 5.1 ch / 640 kbps / 16 bit / Русский дубляж BD
Язык : Russian
Default : Да
Forced : Нет

Аудио #2
Идентификатор : 3
Формат : AC-3
Формат/Информация : Audio
f98e932de5eab3121d745bdecc7c98ac4ceff263[3D] Мартышки в космосе: Ответный удар / Space Chimps 2: Zartog Strikes Back (Джон Х. Уильямс, мультфильм, комедия, семейный, 2010) [BDRip 1080p, Профессиональный (дублированный) + Оригинал] [Half OverUnder / Вертикальная анаморфная стереопара] [3D] Мартышки в космосе: Ответный удар / Space Chimps 2: Zartog Strikes Back (Джон Х. Уильямс, мультфильм, комедия, семейный, 2010) [BDRip 1080p, Профессиональный (дублированный) + Оригинал] [Half OverUnder / Вертикальная анаморфная стереопара] " />

Аплоадер: Админ, дата: 26-03-2013, 15:20, торрент скачан: 359 раз

Понравилась раздача? Посмотрите эти:
  • [3D] Zомби каникулы (Кирилл Кемниц, Ужасы, триллер, комедия, 2013) [BDRip 1 ...
  • [3D] Эпик / Epic (Крис Уэдж, Мультфильм, фэнтези, приключения, комедия, сем ...
  • [3D] G.I. Joe: Бросок кобры 2 / G.I. Joe: Retaliation [Theatrical Cut] (Джо ...
  • [3D] Тростниковые жабы: Оккупация / Cane Toads: The Conquest (Марк Льюис , ...
  • [3D] Магазинчик самоубийств / Le magasin des suicides (Патрис Леконт, мульт ...
  • [3D] Тростниковые жабы: Оккупация / Cane Toads: The Conquest (Марк Льюис , ...
  • [3D] Магазинчик самоубийств / Le magasin des suicides (Патрис Леконт, мульт ...
  • [3D] Санктум в 3Д / Sanctum in 3D (Aлистeр Гpирсoн, триллер, драма, приключ ...
  • [3D] Хроники Нарнии: Покоритель Зари / The Chronicles of Narnia: The Voyage ...
  • [3D] Тачки 2 / Cars 2 (Джон Лассетер, Брэд Льюис, мультфильм, комедия, прик ...
  • [3D] Франкенвини / Frankenweenie (Тим Бёртон, Mультфильм, ужасы, фантастика ...
  • [3D] Winx Club: Волшебное приключение / WINX Club 3D: Magical Adventure (Ид ...
  • [3D] Сайлент Хилл 2 / Silent Hill: Revelation 3D (Майкл Дж. Бассетт, Ужасы, ...
  • [3D] Жизнь Пи / Life of Pi (Энг Ли, драма, приключения, 2012) [BDRip 1080p, ...
  • Мартышки в космосе: Ответный удар / Space Chimps 2: Zartog Strikes Back ( Д ...
  • [3D] The Black Eyed Peas / I Gotta Feeling (Pop, 2010) [BDRip-AVC] [Half Ov ...
  • [3D] Кот и цыплёнок / I Tawt I Taw а Puddy Tat (Мэттью ОКаллаган / Matthew ...
  • [3D] Цирк! Цирк! Цирк! 3D/ Orla Frosnapper 3D (Питер Додд) [2011 г., мультф ...
  • [3D] Секретная служба Санта-Клауса / Arthur Christmas (Сара Смит, Бэрри Кук ...
  • [3D] В случае убийства набирайте «М» в 3Д / Dial M for Murder 3D (Alfred Hi ...
  • Мартышки в космосе: Ответный удар / Space Chimps 2: Zartog Strikes Back ( Д ...
  • Мартышки в космосе / Space Chimps (Кирк де Микко, фантастика, комедия, прик ...
  • Мартышки в космосе: Ответный удар / Space Chimps 2: Zartog Strikes Back ( Д ...
  • Мартышки в космосе / Space Chimps (Кирк де Микко, фантастика, комедия, при ...
  • Мартышки в космосе: Ответный удар / Space Chimps 2: Zartog Strikes Back (Дж ...
  • Информация
    Посетители, находящиеся в группе Гости, не могут оставлять комментарии к данной публикации.