вход на сайт

Имя пользователя :
Пароль :

Восстановление пароля Регистрация
[3D] Лондон 2012. Олимпийские игры. Церемония Открытия (Дэнни Бойл, Спорт, Шоу, Документальный, 2012) [HDTVRip 720p, Оригинал (Комментарии отсутствуют)] [Half Side-by-Side / Горизонтальная анаморфная стереопара]
Рейтинг:
(голосов: 1)



[img]{THEME}/images/logopost.png[/img]




Лондон 2012. Олимпийские игры. Церемония Открытия

Год выпуска: 2012
Страна: Великобритания
Жанр: Спорт, Шоу, Документальный

Режиссёр: Дэнни Бойл / Danny Boyle


Перевод: Отсутствует. (Видео без комментариев, оригинал)
Субтитры: Отсутствуют.


Описание:
Церемония открытия летних XXX Олимпийских Игр состоялась 27 июля 2012 года в 21:00 BST (UTC+1)на Олимпийском стадионе в Лондоне.

Представление называлось «Острова Чудес» (Isles of Wonder) постановщиком которого стал "оскароносный" режиссер Дэнни Бойл. Сюжет до последнего времени держался в секрете. Было лишь известно, что организаторы надеются превзойти по размаху и сюрпризам все предыдущие церемонии, включая и прежнего рекордсмена по масштабам и расходам - Пекин.

Кульминационной частью любой церемонии открытия Игр является проход национальных команд перед зрителями под государственными флагами. Парад сборных является одновременно самой тяжелой и интересной частью, как для зрителей, так и для атлетов.

Завершилась церемония открытия грандиозным салютом под бессмертный хит The Beatles Hey Jude, который исполнил автор песни сэр Пол Маккартни.


Запись трансляции состоит из трёх частей:
#1 - Представление
#2 - Проход команд по стадиону
#3 - Официальная церемония открытия


Доп. информация:
Формат 3D: Anamorph Half side-by-side (Горизонтальная анаморфная стереопара)
Порядок ракурсов: Параллельная стереопара. Левое изображение - слева / Правое - справа

Качество: HDTVrip
Продолжительность: 01:19:11ч + 01:33:28ч. + 45:50:12ч. (4:45:51час.)

Формат: .divx
Видео кодек: DX50
Аудио кодек: MP3
Видео: AVC / 1280х720p (16:9) / 25,000 fps / 3313 Kbps / 0.144 bit/pixel
Аудио:MP3 / 44.1 KHz / 2 ch / 128 Kbps


MediaInfo ▼
"Opening Ceremony 2012 Olympics 1 3D SBS.divx" ▼General
Complete name : /Torrents/home/vladcha/data/Olympics/Opening Ceremony 2012 Olympics 1 3D SBS.divx
Format : AVI
Format/Info : Audio Video Interleave
File size : 1.93 GiB
Duration : 1h 19mn
Overall bit rate : 3 451 Kbps

Video
ID : 0
Format : MPEG-4 Visual
Format settings, BVOP : 1
Format settings, QPel : No
Format settings, GMC : No warppoints
Format settings, Matrix : Default (H.263)
Muxing mode : Packed bitstream
Codec ID : DX50
Codec ID/Hint : DivX 5
Duration : 1h 19mn
Bit rate : 3 313 Kbps
Width : 1 280 pixels
Height : 720 pixels
Display aspect ratio : 16:9
Frame rate : 25.000 fps
Color space : YUV
Chroma subsampling : 4:2:0
Bit depth : 8 bits
Scan type : Progressive
Compression mode : Lossy
Bits/(Pixel*Frame) : 0.144
Stream size : 1.85 GiB (96%)
Title : Video
Writing library : DivX 3330

Audio
ID : 1
Format : MPEG Audio
Format version : Version 1
Format profile : Layer 3
Mode : Joint stereo
Mode extension : MS Stereo
Codec ID : 55
Codec ID/Hint : MP3
Duration : 1h 19mn
Bit rate mode : Constant
Bit rate : 128 Kbps
Channel(s) : 2 channels
Sampling rate : 44.1 KHz
Compression mode : Lossy
Stream size : 73.2 MiB (4%)
Alignment : Split accross interleaves
Interleave, duration : 40 ms (1.00 video frame)
Interleave, preload duration : 500 ms
Title : Audio
"Opening Ceremony 2012 Olympics 2 3D SBS.divx" ▼General
Complete name : /Torrents/home/vladcha/data/Olympics/Opening Ceremony 2012 Olympics 2 3D SBS.divx
Format : AVI
Format/Info : Audio Video Interleave
File size : 2.25 GiB
Duration : 1h 33mn
Overall bit rate : 3 451 Kbps

Video
ID : 0
Format : MPEG-4 Visual
Format settings, BVOP : 1
Format settings, QPel : No
Format settings, GMC : No warppoints
Format settings, Matrix : Default (H.263)
Muxing mode : Packed bitstream
Codec ID : DX50
Codec ID/Hint : DivX 5
Duration : 1h 33mn
Bit rate : 3 313 Kbps
Width : 1 280 pixels
Height : 720 pixels
Display aspect ratio : 16:9
Frame rate : 25.000 fps
Color space : YUV
Chroma subsampling : 4:2:0
Bit depth : 8 bits
Scan type : Progressive
Compression mode : Lossy
Bits/(Pixel*Frame) : 0.144
Stream size : 2.1
5ff815201d647a7614eb8c3331e3d32bb9b2d908[3D] Лондон 2012. Олимпийские игры. Церемония Открытия (Дэнни Бойл, Спорт, Шоу, Документальный, 2012) [HDTVRip 720p, Оригинал (Комментарии отсутствуют)] [Half Side-by-Side / Горизонтальная анаморфная стереопара] [3D] Лондон 2012. Олимпийские игры. Церемония Открытия (Дэнни Бойл, Спорт, Шоу, Документальный, 2012) [HDTVRip 720p, Оригинал (Комментарии отсутствуют)] [Half Side-by-Side / Горизонтальная анаморфная стереопара] " />

Аплоадер: Админ, дата: 15-08-2012, 05:02, торрент скачан: 359 раз

Понравилась раздача? Посмотрите эти:
  • Чемпионат Италии 2012-13 / 36-й тур / Рома — Кьево / НТВ+ [07.05.2013, SD, ...
  • [3D] Britney Spears Live: The Femme Fatale Tour (Тед Кенни, Дэниель «Облако ...
  • [3D] Непристойное кино 3Д / Sex Pot 3D ( Эрик Форсберг / Eric Forsberg, Ко ...
  • Дневники разработчиков Nissan GT-R / The GT-R Legend (Хакидо Санир, Докумен ...
  • [3D]TOP GIRL 3D (Музыкальный клип демонстрирующий 3Д эффекты с максимальным ...
  • [3D] Тёмный мир (Антон Мегердичев, Фэнтези, триллер, 2010) [BD Rip 1080p, О ...
  • [3D] Рыбки в аквариуме 3D (КИВ, Документальное кино, 2012) [HDTV] [Anamorph ...
  • Чемпионат Англии 2011-12 / 35 тур / Манчестер Юнайтед - Эвертон / Спорт 1 [ ...
  • [3D] TOP GIRL 3D (Оригинальный клип от LG, демонстрирующий 3D эффекты с мак ...
  • Чемпионат Англии 2011-12 / 37-й тур / Манчестер Юнайтед - Суонси Сити / Спо ...
  • Церемония открытия летних Олимпийских игр 2012 в Лондоне. Первый канал. [27 ...
  • Церемония открытия летних Олимпийских игр 2012 в Лондоне / Спорт 1 [27.07.2 ...
  • Церемония открытия летних Олимпийских игр 2012 в Лондоне. НТВ + [27.08.2012 ...
  • Церемония открытия летних олимпийских игр 2012 в Лондоне / Спорт 1HD [Олимп ...
  • Олимпиада 2012 / Женщины, Мужчины / Плавание / Квалификация / НТВ+ [30.07.2 ...
  • ХХХ Летние Олимпийские Игры / Плавание / Мужчины, Женщины / День 3 - Финалы ...
  • ХХХ Летние Олимпийские Игры / Лёгкая атлетика / День 5 / Утро / Спорт 1 [07 ...
  • ХХХ Летние Олимпийские Игры / Лёгкая атлетика / День 5 / Вечер / Спорт 1 [0 ...
  • ХХХ Летние Олимпийские Игры / Волейбол / Мужчины / Четвертьфинал / Польша – ...
  • ХХХ Летние Олимпийские Игры / Лёгкая атлетика / День 6 / Вечер / Спорт 1 [0 ...
  • ХХХ Летние Олимпийские Игры / Лёгкая атлетика / День 7 / Утро / Спорт 1 [09 ...
  • ХХХ Летние Олимпийские Игры / Лёгкая атлетика / День 7 / Финалы и Полуфинал ...
  • ХХХ Летние Олимпийские Игры / Лёгкая атлетика / День 8 / Вечер [10.08.2012, ...
  • Церемония закрытия летних Олимпийских Игр Лондон 2012 | НТВ+ [Олимпиада, 12 ...
  • [3D] Аквариум 3D ( Документальный, Видовой, Релакс, 2011) [HDTV, Перевод не ...
  • Информация
    Посетители, находящиеся в группе Гости, не могут оставлять комментарии к данной публикации.