вход на сайт

Имя пользователя :
Пароль :

Восстановление пароля Регистрация
Глядя на полумесяц / Hanbun no Tsuki ga Noboru Sora // Сезон 1, Эпизоды с 1 по 6 (из 6) (2006) [DVDRip, любительский (двухголосый) + оригинал, софтсаб]
Рейтинг:
(голосов: 1)



[img]{THEME}/images/logopost.png[/img]



Глядя на полумесяц / Hanbun no Tsuki ga Noboru Sora

Сезон 1, Эпизоды с 1 по 6 (из 6)

Год выпуска: 2006
Страна: Япония
Производство студии: Group TAC
Жанр: Драма, Романтика

Режиссёр: Мацусита Юкихиро
Автор оригинала: Хасимото Цумугу

Озвучка: Любительская (двуxголосая, ITLM & Say) + оригинал
Хардсаб: без хардсаба
Софтсаб: есть (вшитый, русский)

Описание: История драмы происходит в провинциальной больнице, в которой проходят лечение два подростка: Юити Эдзаки и Рики Акиба. У Юити лёгкая форма гепатита, поэтому он не особо беспокоится о своём здоровье и часто убегает из больницы, за что постоянно получает нагоняи от медсестры Акико Танидзаки. От скуки и под влиянием Акико Юити знакомится с Рикой, у которой серьёзные проблемы с клапаном сердца. Он влюбляется в неё, не подозревая, что той осталось жить совсем немного.

Список эпизодов:
1. Akiko-san, the Girl and Akutagawa Ryuunosuke
2. Inheritance of the Tada Collection
3. Ebizaki Collections demise and...
4. Only One Day of School Life
5. The One Minute Which Has Been Stopped
6. As For Our Both Hands

Качество: DVDRip
Продолжительность: 1 эпизод - 25 мин.

Формат: MKV
Видео кодек: H.264
Аудио кодек: AAC - Русский двухголосый
Аудио кодек: MP3 - Японский оригинал
Свойства видео: H.264, 720x404, 29.970fps, 1500kbps
Свойства аудио: AAC, 44,1 kHz, 128 kbps, 2 chnls - Любительская (двуxголосая, ITLM & Say)
Свойства аудио: MP3, 44,1 kHz, 128 kbps, 2 chnls - Японский оригинал

Media Info:
▼TextОбщее
Формат : MKV
Формат/Информация : Audio Video Interleave
Профиль формата : OpenDML
Размер файла : 1,80 Гбайт
Продолжительность : 1 эпизод - 25 мин.
Общий поток : 1500 Кбит/сек
Программа кодирования : VirtualDubMod 1.5.10.2 (build 2540/release)
Библиотека кодирования : VirtualDubMod build 2540/release
Видео
Идентификатор : 0
Формат : MPEG-4 Visual
Профиль формата : Advanced [email protected]
Параметр BVOP формата : 3
Параметр QPel формата : Нет
Параметр GMC формата : 3 точки перехода
Параметр матрицы формата : Default (H.263)
Идентификатор кодека : XVID
Идентификатор кодека/Подсказка : XviD
Продолжительность : 2 ч. 6 м.
Битрейт : 1538 Кбит/сек
Ширина : 720 пикс.
Высота : 400 пикс.
Соотношение сторон : 16:9
Частота кадров : 23,976 кадр/сек
Цветовое пространство : YUV
Подвыборка цветности : 4:2:0
Битовая глубина : 8 бит
Тип развёртки : Прогрессивная
Метод сжатия : С потерями
Бит/(Пиксели*Кадры) : 0.223
Размер потока : 1,36 Гбайт (54%)
Библиотека кодирования : XviD 63
Аудио #1
Идентификатор : 1
Формат : AAC
Формат/Информация : Audio Coding 3
Расширение режима : CM (complete main)
Идентификатор кодека : 2000
Продолжительность : 1 эпизод - 25 мин.
Вид битрейта : Постоянный
Битрейт : 640 Кбит/сек
Канал(ы) : 6 канала(ов)
Расположение каналов : Front: L C R, Side: L R, LFE
Частота : 44,1 КГц
Битовая глубина : 16 бит
Метод сжатия : С потерями
Размер потока : 579 Мбайт (23%)
Выравнивание : Разделение по промежуткам
Продолжительность промежутка : 42 мс. (1,00 видеокадр)
Время предзагрузки промежутка : 500 ms
Аудио #2
Идентификатор : 2
Формат : MP3
Формат/Информация : Audio Coding 3
Расширение режима : CM (complete main)
Идентификатор кодека : 2000
Продолжительность : 1 эпизод - 25 мин.
Вид битрейта : Постоянный
Битрейт : 640 Кбит/сек
Канал(ы) : 6 канала(ов)
Расположение каналов : Front: L C R, Side: L R, LFE
Частота : 44,1 КГц
Битовая глубина : 16 бит
Метод сжатия : С потерями
Размер потока : 579 Мбайт (23%)
Выравнивание : Разделение по промежуткам
Продолжительность промежутка : 42 мс. (1,00 видеокадр)
Время предзагрузки промежутка : 500 ms


436ec0bcf30ee7a16bee42e609ecd89fc2d6ee7cГлядя на полумесяц / Hanbun no Tsuki ga Noboru Sora // Сезон 1, Эпизоды с 1 по 6 (из 6) (2006) [DVDRip, любительский (двухголосый) + оригинал, софтсаб] Глядя на полумесяц / Hanbun no Tsuki ga Noboru Sora // Сезон 1, Эпизоды с 1 по 6 (из 6) (2006) [DVDRip, любительский (двухголосый) + оригинал, софтсаб] " />

Аплоадер: Админ, дата: 14-03-2012, 21:08, торрент скачан: 359 раз

Понравилась раздача? Посмотрите эти:
  • Бойфренд из будущего / About Time (Ричард Кёртис, Фантастика, драма, комеди ...
  • Одноклассники 2 / Grown Ups 2 (Деннис Дуган, Комедия, 2013) [BDRip, Професс ...
  • Паприка / Paprika // Фильм 1, эпизод 1 (из 1) (2006) [BDRip, профессиональн ...
  • Кровью и потом: Анаболики / Pain & Gain (Майкл Бэй, криминал, комедия, трил ...
  • Миллион для чайников / The Brass Teapot (Рамаа Мосли, Фэнтези, триллер, ком ...
  • Это - Англия. Год 1986 / This Is England 86 // Сезон 1, эпизоды с 1 по 4 (и ...
  • Мир без конца / World Without End // Сезон 1, эпизоды с 1 по 8 (из 8) (трил ...
  • Жил-был тигр / Ek Tha Tiger (Кабир Кхан, боевик, триллер , 2012) [ HDRip, ...
  • Приключения Икабода и Мистера Тоада / The Adventures Of Ichabod And Mr. Toa ...
  • Легенда о МорДу / The Legend of MorDu (Брайан Ларсен, Короткометражный, ска ...
  • Путешествие на дно моря / Voyage to the Bottom of the Sea (Ирвин Аллен / I ...
  • Кажется, я люблю свою жену / I Think I Love My Wife (Крис Рок, Драма, мелод ...
  • Бог любви / God of Love (Люк Мэзени, Короткометражка, фэнтези, комедия, мел ...
  • Идеальный Голос / Pitch Perfect (Джейсон Мур, Комедия, музыка, 2012) [HDRip ...
  • Боец из трущоб / Gutter King (Кейт Алан Моррис / Keith Alan Morris, боевик, ...
  • Масс Эффект: Ушедший Герой / Mass Effect: Paragon Lost // Фильм 1 (из 1) ( ...
  • Черная Маска / Black Mask (Дэниэл Ли, фантастика, боевик, триллер, комедия, ...
  • Детский душ / Baby Shower (Pablo Illanes, Ужасы, 2011) [DVDRip, Любительски ...
  • Челюсти 3D / Shark Night 3D (Дэвид Р. Эллис, ужасы, триллер, 2011) [HDRip, ...
  • Многоцветье / Colorful (2010) [BDRip [HWP], любительский (двухголосый) + ор ...
  • Грэйс / Grace (Паул Солет, ужасы, триллер, драма, 2009) [BDRip, Профессиона ...
  • Гениальный папа / Father of Invention (Трент Купер, Драма, комедия, 2010) [ ...
  • Глаз шторма / The Eye of the Storm (Фред Скеписи, Драма, 2011) [HDRip, Проф ...
  • Человек из банки (Иван Кульнев, Комедия, 2012) [DVDRip, Не требуется]
  • Сдохни, Джон Такер / John Tucker Must Die (Бетти Томас, мелодрама, комедия, ...
  • Информация
    Посетители, находящиеся в группе Гости, не могут оставлять комментарии к данной публикации.