вход на сайт

Имя пользователя :
Пароль :

Восстановление пароля Регистрация
Блэйд / Blade // Сезон 1, Эпизоды с 1 по 12 (из 12) (2011) [HDTVRip, любительская (одноголосая, Nikitos) + оригинал]
Рейтинг:
(голосов: 1)



[img]{THEME}/images/logopost.png[/img]



Блэйд / Blade

Сезон 1, Эпизоды с 1 по 12 (из 12)

Год выпуска: 2011
Страна: Япония
Производство студии: Madhouse
Жанр: Фантастика, Боевик, Приключения

Режиссёр: Масухара Мицуюки
Автор оригинала: Marvel Entertainment

Перевод: VanTuz & Obelikx
Озвучка: Оригинал + Любительская (одноголосая, NIKITOS)
Хардсаб: Нет
Софтсаб: Нет

Описание: Суровый афроангличанин Эрик Брукс по прозвищу Блэйд – искусный и безжалостный охотник на истинных Повелителей Ночи, которые много тысячелетий держат человечество в страхе и неведении. Рожденный в лондонских трущобах от женщины, укушенной вампиром, он получил схожие мистические способности и неутолимую ненависть к своим «родственникам поневоле». Долгие годы Блэйд, прозванный еще Дневным Странником, ведет войну с Дьяконом Фростом – некогда крупным ученым, потом могущественным вампиром, убившим его мать и ныне стремящимся занять место одного из Ночных Князей. Конечно же, поиски приводят Блэйда в далекую Японию…

Хотя главный герой – типичный одинокий волк, все равно в столь опасном деле трудно без союзников. В погоне за заклятым врагом Блэйд сталкивается с коллегами – молодой японкой Макото и ее отцом. Трагические события в Иокогаме сначала разводят героев в разные стороны, но постепенно общее дело и схожие чувства рождают новый боевой союз. А уж когда Эрик воссоединяется со старым другом Ноем Ван Хельсингом (а как без потомков Профессора?), действие закипает по всему миру, а вампиры только успевают гореть синим пламенем. Почему даже у величайших злодеев нет шансов против героя с серебряным клинком? Потому что они слишком много думают!
© Hollow, World Art

Список эпизодов: ▼01. Блэйд, человек
02. Безумный мир.
03. Охотник на вампиров.
04. Дни детства.
05. Светящийся остров.
06. Знахарь.
07. Дневной бродяга и мутант.
08. Апокалипсис навсегда.
09. Ученики и учитель.
10. Водоворот стенаний.
11. Напарники.
12. На тёмной стороне.

Качество: HDTVRip
Продолжительность: 1 эпизод - 23 мин.

Формат: MP4
Видео кодек: х264
Аудио кодек: AAC
Свойства видео: 1280х720, 23.976 кадр/сек, 1 730 Кбит/сек
Свойства аудио №1: AAC 48000 Hz, Stereo, 192 kbps
Свойства аудио №2: AAC 48000 Hz, Stereo, 192 kbps

отчет MediaInfo ▼
TextРасположение: C:DownloadsMediaBlade_TV_[NIKITOS][AniFilm]_Blade_TV_[01_of_12]_[Rus_Jap]_[NIKITOS].mp4
Имя файла: [AniFilm]_Blade_TV_[01_of_12]_[Rus_Jap]_[NIKITOS].mp4
Формат файла: .mp4 (MPEG-4)
Размер файла: 290.87 MB
Длительность: 23mn 30s
Навигация по главам: Нет
Bitrate (все потоки): 1 730 Kbps
Тип битрейта (все потоки): Variable
Файл создан...: UTC 2011-07-05 21:15:57
...при помощи: Yamb 2.1.0.0 [http://yamb.unite-video.com]

Название: www.AniFilm.Tv

Тип потока: Видео
Длительность: 00:23:29
Кодек: AVC
Кодек/Профиль: [email protected]
Кодек/ID: avc1
Кодек/CABAC: Yes
Кодек/ReFrames: 3 frames
Размеры изображения: 1280 x 720 (16:9)
Частота кадров: 23.976 fps
Размер потока: 226 MiB (78%)
Битрейт: 1 343 Kbps
Битрейт/макс: 8 460 Kbps
Библиотека кодирования: x264 core 59
Цветовое пространство: YUV
Тип развёртки: Progressive
Глубина: 8 bits
Настройки кодирования: cabac=1 / ref=3 / deblock=1:0:0 / analyse=0x3:0x133 / me=umh / subme=5 / brdo=0 / mixed_ref=0 / me_range=64 / chroma_me=1 / trellis=2 / 8x8dct=1 / cqm=0 / deadzone=21,11 / chroma_qp_offset=0 / threads=6 / nr=0 / decimate=1 / mbaff=0 / bframes=3 / b_pyramid=0 / b_adapt=1 / b_bias=0 / direct=1 / wpredb=1 / bime=0 / keyint=250 / keyint_min=25 / scenecut=40(pre) / rc=crf / crf=21.7 / rceq=blurCplx^(1-qComp) / qcomp=1.00 / qpmin=10 / qpmax=51 / qpstep=8 / ip_ratio=1.40 / pb_ratio=1.30 / aq=2:1.00

Тип потока: Звук #1
Язык: Russian
Название: NIKITOS from SHiZA
Длительность: 00:23:30.197
Кодек: AAC
Кодек/Профиль: LC
Кодек/ID: 40
Частота дискретизации: 48.0 KHz
Каналов: 2 channels
Битрейт: 192 Kbps
Битрейт/тип: Variable
Размер потока: 32.3 MiB (11%)
Метод сжатия: Lossy

Тип потока: Звук #2
Язык: Japanese
Название: JAP Original
Длите
470b0df38d9740a6c4186f60b6186fae0acf5637Блэйд / Blade // Сезон 1, Эпизоды с 1 по 12 (из 12) (2011) [HDTVRip, любительская (одноголосая, Nikitos) + оригинал] Блэйд / Blade // Сезон 1, Эпизоды с 1 по 12 (из 12) (2011) [HDTVRip, любительская (одноголосая, Nikitos) + оригинал] " />

Аплоадер: Админ, дата: 17-01-2014, 21:40, торрент скачан: 359 раз

Понравилась раздача? Посмотрите эти:
  • Люди Икс / X-Men // Сезон 1, Эпизоды с 1 по 12 (из 12) (2011) [HDTVRip, люб ...
  • Железный Человек / Iron Man // Сезон 1, Эпизоды с 1 по 12 (из 12) (2010) [H ...
  • Странность+ / Strange+ // Сезон 1, Эпизоды с 1 по 2 (из 12) (2014) [HDTVRip ...
  • Звезда: план покорения мира / Sekai Seifuku - Bouryaku no Zvezda // Сезон 1 ...
  • Один на Вылет / One Outs // Сезон 1, Эпизоды с 1 по 25 (из 25) (2008) [HDTV ...
  • Наруто: Фильмы / Naruto: Movies // эпизоды с 1 по 6 (из 9) (2004-2009) [DVD ...
  • Наруто: Фильмы Naruto: Movies // эпизоды с 7 по 9 (из 9) (2010-2012) [DVDR ...
  • Истинно геройский файт / Senyuu // Сезон 1, Эпизоды с 1 по 13 (из 13) (2013 ...
  • Наруто: Ураганные хроники / Naruto Shippuuden // эпизоды с 283 по 307 (из ? ...
  • Наруто: Ураганные хроники / Naruto Shippuuden // эпизоды с 283 по 306 (из ? ...
  • Наруто: Ураганные хроники / Naruto Shippuuden // эпизоды с 283 по 302 (из ? ...
  • Хаятэ, боевой дворецкий [ТВ-3] / Hayate no Gotoku! Cant Take My Eyes Off Yo ...
  • Наруто: Ураганные хроники / Naruto Shippuuden // эпизоды с 283 по 301 (из ? ...
  • Блэйд II/ Blade II (Guillermo del Toro, боевик, триллер, 2002 г.) [DVDRip, ...
  • Демон-дворецкий 2 / Kuroshitsuji II / Сезон 2, Эпизоды 1-12 (из 12) (2010) ...
  • Наруто: Ураганные хроники / Naruto Shippuuden // Сезон 2, Эпизод 268 (2012) ...
  • Наруто: Ураганные хроники / Naruto Shippuuden // Сезон 2, Эпизоды 273-274 ( ...
  • Наруто: Ураганные хроники / Naruto Shippuuden // эпизоды с 283 по 297 (из ? ...
  • (1998) VA / Блэйд / Blade (OST) [mp3 320/CBR]
  • Наруто: Ураганные хроники / Naruto Shippuuden // эпизоды с 283 по 294 (из ? ...
  • [1998] Blade 1/Блэйд 1 (OST) [MP3 192Кбит/с CBR]
  • Блэйд / Blade (Стивен Норрингтон, Боевик, Фантастика, Ужасы, 1998) [HDRip, ...
  • Чиби Наруто: Весна Юности Рока Ли / Naruto SD: Rock Lee no Seishun Full-Pow ...
  • Ван Пис / One Piece // Сезон 15, Эпизод 552 (2012) [WebRip, любительская ( ...
  • Наруто: Ураганные хроники / Naruto Shippuuden // Сезон 2, Эпизод 281 (2012) ...
  • Информация
    Посетители, находящиеся в группе Гости, не могут оставлять комментарии к данной публикации.