вход на сайт

Имя пользователя :
Пароль :

Восстановление пароля Регистрация
Люди Икс / X-Men // Сезон 1, Эпизоды с 1 по 12 (из 12) (2011) [HDTVRip, любительская (одноголосая, Nikitos) + оригинал]
Рейтинг:
(голосов: 1)



[img]{THEME}/images/logopost.png[/img]



Люди Икс / X-Men

Сезон 1, Эпизоды с 1 по 12 (из 12)

Год выпуска: 2011
Страна: Япония
Производство студии: Madhouse
Жанр: Фантастика, Боевик, Приключения

Режиссёр: Кидзаки Фуминори
Автор оригинала: Marvel Entertainment

Перевод: VanTuz & Obelikx
Озвучка: Оригинал + Любительская (одноголосая, NIKITOS)
Хардсаб: Нет
Софтсаб: Нет

Описание: Эволюция продолжается! Среди homo sapiens постепенно появляется новая раса с необычными способностями – кто-то овладел стихиями, обрел невероятную силу и скорость, другие читают мысли или проходят сквозь стены. Страх, любопытство, неприятие, агрессия – вот реакция обычных людей на тех, чье существование перестало быть секретом для публики. Власть имущие ищут контроль над мутантами, некоторые мутанты открыто заявляют, что раз они «следующая ступень», то надо объединиться и править «людишками». Лишь небольшая группа одаренных озабочена не властью или личной выгодой, а поиском согласия в новом мире, помощью людям и себе подобным. Их зовут просто – «Люди Икс».

После многих битв, великих побед и горьких неудач, группа профессора Ксавье рассеялась. Но вот очередной тревожный сигнал приходит (конечно же!) из Японии, и краткое расследование показывает, что беда грозит не отдельным лицам, а судьбам мира. А это значит, что Циклопу, Шторм, Зверю и Росомахе пора вновь садиться в иксоплан и лететь на острова, в район Тохоку, где они нужнее всего. За исчезновением юной мутантки Хисако просматриваются корни куда более зловещего заговора. Но кто сомневается в успехе? Япония еще не видела подобного нашествия западных супергероев!
© Hollow, World Art

Список эпизодов: ▼01. Возвращение - Сбор
02. Охотники на мутантов
03. Пробуждение
04. Вторичная мутация
05. Единство
06. Ожесточённая борьба
07. Предательство.
08. Знамение.
09. Властитель дум.
10. Правда.
11. Конец.
12. Узы.

Качество: HDTVRip
Продолжительность: 1 эпизод - 23 мин.

Формат: MP4
Видео кодек: х264
Аудио кодек: AAC
Свойства видео: 1280х720, 23.976 кадр/сек, 2 354 Кбит/сек
Свойства аудио №1: AAC 48000 Hz, Stereo, 192 kbps
Свойства аудио №2: AAC 48000 Hz, Stereo, 192 kbps

отчет MediaInfo ▼
TextИмя файла: [AniFilm]_X-Men_TV_[01_of_12]_[Rus_Jap]_[NIKITOS].mp4
Формат файла: .mp4 (MPEG-4)
Размер файла: 395.63 MB
Длительность: 23mn 29s
Навигация по главам: Нет
Bitrate (все потоки): 2 354 Kbps
Тип битрейта (все потоки): Variable
Файл создан...: UTC 2011-04-04 18:41:50
...при помощи: Yamb 2.1.0.0 [http://yamb.unite-video.com]

Название: www.AniFilm.Tv

Тип потока: Видео
Длительность: 00:23:29
Кодек: AVC
Кодек/Профиль: [email protected]
Кодек/ID: avc1
Кодек/CABAC: Yes
Кодек/ReFrames: 3 frames
Размеры изображения: 1280 x 720 (16:9)
Частота кадров: 23.976 fps
Размер потока: 336 MiB (85%)
Битрейт: 1 996 Kbps
Битрейт/макс: 9 127 Kbps
Библиотека кодирования: x264 core 75 r1246 5b3c89c
Цветовое пространство: YUV
Тип развёртки: Progressive
Глубина: 8 bits
Настройки кодирования: cabac=1 / ref=3 / deblock=1:-2:-2 / analyse=0x3:0x133 / me=umh / subme=9 / psy=1 / psy_rd=0.5:0.0 / mixed_ref=1 / me_range=32 / chroma_me=1 / trellis=2 / 8x8dct=1 / cqm=0 / deadzone=21,11 / chroma_qp_offset=-2 / threads=3 / nr=0 / decimate=1 / mbaff=0 / bframes=2 / b_pyramid=0 / b_adapt=2 / b_bias=0 / direct=3 / wpredb=1 / keyint=240 / keyint_min=1 / scenecut=40 / rc_lookahead=36 / rc=crf / mbtree=1 / crf=20.0 / qcomp=0.60 / qpmin=10 / qpmax=51 / qpstep=8 / ip_ratio=1.40 / aq=1:1.00

Тип потока: Звук #1
Язык: Russian
Название: NIKITOS from SHIZA
Длительность: 00:23:29.940
Кодек: AAC
Кодек/Профиль: LC
Кодек/ID: 40
Частота дискретизации: 48.0 KHz
Каналов: 2 channels
Битрейт: 192 Kbps
Битрейт/тип: Variable
Размер потока: 32.3 MiB (8%)
Метод сжатия: Lossy

Тип потока: Звук #2
Язык: Japanese
Название: JAP Original
Длительность: 00:23:29.898
Кодек: AAC
Кодек/Профиль: LC
Кодек/ID: 40
Частота дискретизации: 48.0 KHz
Каналов: 2 channels
Битрейт: 160 Kbps
Битрейт/тип: Variable
Размер потока: 26.9 MiB (7%)
Мет
60749e5c04105134b43d198f7dbcf3f085fbf594Люди Икс / X-Men // Сезон 1, Эпизоды с 1 по 12 (из 12) (2011) [HDTVRip, любительская (одноголосая, Nikitos) + оригинал] Люди Икс / X-Men // Сезон 1, Эпизоды с 1 по 12 (из 12) (2011) [HDTVRip, любительская (одноголосая, Nikitos) + оригинал] " />

Аплоадер: Админ, дата: 16-01-2014, 23:53, торрент скачан: 359 раз

Понравилась раздача? Посмотрите эти:
  • Блэйд / Blade // Сезон 1, Эпизоды с 1 по 12 (из 12) (2011) [HDTVRip, любите ...
  • Железный Человек / Iron Man // Сезон 1, Эпизоды с 1 по 12 (из 12) (2010) [H ...
  • Звезда: план покорения мира / Sekai Seifuku - Bouryaku no Zvezda // Сезон 1 ...
  • Пес & Ножницы / Inu to Hasami wa Tsukaiyou // Сезон 1, Эпизоды c 1 по 10 (и ...
  • Игровое гиперпространство Нептунии / Choujigen Game Neptune The Animation / ...
  • Один на Вылет / One Outs // Сезон 1, Эпизоды с 1 по 25 (из 25) (2008) [HDTV ...
  • Наруто: Ураганные хроники / Naruto Shippuuden // Сезон 2, Эпизод 320 (2013 ...
  • Игровое гиперпространство Нептунии / Choujigen Game Neptune The Animation / ...
  • Пес & Ножницы / Inu to Hasami wa Tsukaiyou // Сезон 1, Эпизоды c 1 по 5 (из ...
  • Наруто: Фильмы / Naruto: Movies // эпизоды с 1 по 6 (из 9) (2004-2009) [DVD ...
  • Наруто: Фильмы Naruto: Movies // эпизоды с 7 по 9 (из 9) (2010-2012) [DVDR ...
  • Истинно геройский файт / Senyuu // Сезон 1, Эпизоды с 1 по 13 (из 13) (2013 ...
  • Хаятэ, боевой дворецкий [ТВ-3] / Hayate no Gotoku! Cant Take My Eyes Off Yo ...
  • Наруто: Ураганные хроники / Naruto Shippuuden // Сезон 2, Эпизод 299 (2013) ...
  • Наруто: Ураганные хроники / Naruto Shippuuden // Сезон 2, Эпизоды 273-274 ( ...
  • НищеБог-же / Binbougami ga! // Сезон 1, Эпизоды с 1 по 13 (из 13) (2012) [H ...
  • Наруто: Ураганные хроники / Naruto Shippuuden // эпизоды с 283 по 294 (из ? ...
  • Чиби Наруто: Весна Юности Рока Ли / Naruto SD: Rock Lee no Seishun Full-Pow ...
  • Ван Пис / One Piece // Сезон 15, Эпизод 552 (2012) [WebRip, любительская ( ...
  • Наруто: Ураганные хроники / Naruto Shippuuden // Сезон 2, Эпизод 281 (2012) ...
  • Информация
    Посетители, находящиеся в группе Гости, не могут оставлять комментарии к данной публикации.