вход на сайт

Имя пользователя :
Пароль :

Восстановление пароля Регистрация
Алхимическое оружие / Busou Renkin // Сезон 1, Эпизоды с 1 по 26 (из 26) (2007) [DVDrip, любительская (одноголосая, Persona99) + оригинал, софтсаб]
Рейтинг:
(голосов: 1)



[img]{THEME}/images/logopost.png[/img]



Алхимическое оружие / Busou Renkin

Сезон 1, Эпизоды с 1 по 26 (из 26)

Год выпуска: 2007
Страна: Япония
Производство студии: XEBEC
Жанр: приключения, комедия, фэнтези, драма

Режиссёр: Такао Като
Автор оригинала: Нобухиро Вацуки

Озвучка: Любительская (одноголосая) - Persona99 + оригинал
Хардсаб: нет
Софтсаб: есть (внешний, русский)

Описание: Мутоу Казуки, обычный школьник, однажды спасает девушку, которую преследует монстр. В результате Казуки принимает удар на себя и погибает... однако проснувшись он понимает что это был только сон. Но не долго длилось спокойствие Казуки, он опять встречает монстра и понимает, что смерть его была реальна. Затем снова появляется спасённая девочка и объясняет герою, что монстр - это гомункул, созданный алхимией. Кроме всего прочего, в груди Мутоу Казуки уже бьётся не сердце, а Какуган – алхимическое устройство, лучшее оружие против гомункулов.

"Список эпизодов:" ▼01. A New Life
02. The True Form of Homunculus
03. You Became A Little Strong
04. Another New Life
05. For the Sake of the Person Who Must Be Protected
06. Butterfly of Black Death
07. If You Suspect Hypocrisy
08. Night In the School Dormitory
09. The Hayasaka Sister and Brother
10. You and I have A Affinity
11. Two People Separated By Death
12. Carnival
13. Signs Of Death
14. Who are you?
15. Existence of Middle
16. New Power
17. When the Night Ends
18. Flight Journey
19. If Only You Can Protect
20. Putting in Thoughts and Power
21. Gone into Flame
22. The Required Decision
23. Boy Meets Battle Girl
24. When You Die That Is When I Die
25. Substitute Is Not Required
26. Period

Качество: DVDRip
Продолжительность: 1 эпизод - 24 минут

Формат: AVI
Видео кодек: DivХ
Аудио кодек: MP3
Свойства видео: 704x402, ~1201 kbps, 23.976 fps, 0.117 bit/pixel
Свойства аудио:
Rus - 192 kbps, 48 KHz, 2 ch
Jap - 128 kbps, 48 KHz, 2 ch

Отчет по MediaInfo ▼TextVideo #0
ID : 0
Format : MPEG-4 Visual
Format settings, BVOP : 1
Format settings, QPel : No
Format settings, GMC : No warppoints
Format settings, Matrix : Default (H.263)
Muxing mode : Packed bitstream
Codec ID : DX50
Codec ID/Hint : DivX 5
Duration : 23mn 26s
Bit rate : 1 201 Kbps
Width : 704 pixels
Height : 402 pixels
Display aspect ratio : 3:2
Original display aspect ratio : 16:9
Frame rate : 23.976 fps
Color space : YUV
Chroma subsampling : 4:2:0
Bit depth : 8 bits
Scan type : Progressive
Compression mode : Lossy
Bits/(Pixel*Frame) : 0.177
Stream size : 201 MiB (78%)
Writing library : DivX 6.6.1.4
Audio #1
ID : 1
Format : MPEG Audio
Format version : Version 1
Format profile : Layer 3
Mode : Joint stereo
Mode extension : MS Stereo
Codec ID : 55
Codec ID/Hint : MP3
Duration : 23mn 26s
Bit rate mode : Constant
Bit rate : 128 Kbps
Channel(s) : 2 channels
Sampling rate : 48.0 KHz
Compression mode : Lossy
Stream size : 21.5 MiB (8%)
Alignment : Aligned on interleaves
Interleave, duration : 42 ms (1.00 video frame)
Interleave, preload duration : 504 ms
Audio #2
ID : 2
Format : MPEG Audio
Format version : Version 1
Format profile : Layer 3
Mode : Joint stereo
Mode extension : MS Stereo
Codec ID : 55
Codec ID/Hint : MP3
Duration : 23mn 26s
Bit rate mode : Constant
Bit rate : 192 Kbps
Channe
16427c8e1d5266bbd2d2f211c869b0c11f7c2a35Алхимическое оружие / Busou Renkin // Сезон 1, Эпизоды с 1 по 26 (из 26) (2007) [DVDrip, любительская (одноголосая, Persona99) + оригинал, софтсаб] Алхимическое оружие / Busou Renkin // Сезон 1, Эпизоды с 1 по 26 (из 26) (2007) [DVDrip, любительская (одноголосая, Persona99) + оригинал, софтсаб] " />

Аплоадер: Админ, дата: 6-07-2012, 14:43, торрент скачан: 359 раз

Понравилась раздача? Посмотрите эти:
  • Чемпионат Италии 2012-13 / 36-й тур / Рома — Кьево / НТВ+ [07.05.2013, SD, ...
  • Настоящее кунг-фу / Fat shan chaan sin sang / Real kung-fu // Сезон 1, Эпиз ...
  • Молодежный чемпионат мира 2012 (U-20). Четвертьфинал: Россия - Чехия [02.01 ...
  • Чемпионат Испании 2011-12 / 36-й тур / Реал Мадрид - Севилья / НТВ+ [Футбол ...
  • Чемпионат Англии 2011-12 / 36 тур / Челси - Куинз Парк Рейнджерс / Спорт 1 ...
  • Чемпионат Европы 2012 / Группа C / 1-й тур / Ирландия — Хорватия / ТРК Футб ...
  • Олимпиада 2012 / Мужчины / Группа D / 1-й тур / Испания — Япония / НТВ+ [Фу ...
  • Олимпиада 2012 / Футбол / Мужчины / Группа A / 3-й тур / Великобритания - У ...
  • Чемпионат Англии 2011-12 / 35 тур / Манчестер Юнайтед - Эвертон / Спорт 1 [ ...
  • Чемпионат Англии 2011-2012 / Championship / 45-й Тур / Обзор Матчей / НТВ+ ...
  • Чемпионат Англии 2011-12 / 37-й тур / Манчестер Юнайтед - Суонси Сити / Спо ...
  • NBA Finals 2012 / Sportscenter / В преддверии 3-ей игры / Viasat Sport [Бас ...
  • NBA Finals 2012 / Sportscenter / Четвертая игра под микроскопом / Viasat Sp ...
  • Товарищеский матч 2012 / АмаЗулу (ЮАР) - Манчестер Юнайтед (Англия) / MU TV ...
  • Чемпионат России 2012-13 / 1-й тур / Мордовия - Локомотив / НТВ+ [Футбол, 2 ...
  • Олимпиада 2012 / Женщины, Мужчины / Плавание / Квалификация / НТВ+ [30.07.2 ...
  • Товарищеский матч / Звёзды Малайзии - Манчестер Сити / ТК Футбол [Футбол, 2 ...
  • ХХХ Летние Олимпийские Игры / Лёгкая атлетика / День 7 / Финалы и Полуфинал ...
  • ХХХ Летние Олимпийские Игры / Лёгкая атлетика / День 8 / Вечер [10.08.2012, ...
  • Ван Пис / One Piece / Сезон 15, Эпизод 559 (2012) [HDTVRip, любительская (о ...
  • Информация
    Посетители, находящиеся в группе Гости, не могут оставлять комментарии к данной публикации.