вход на сайт

Имя пользователя :
Пароль :

Восстановление пароля Регистрация
Агент Наджика / Najica Blitz Tactics // Сезон 1, Эпизоды с 1 по 12 (из 12) (2001) [DVDRip, профессиональная (многоголосая) + оригинал, софтсаб]
Рейтинг:
(голосов: 1)



[img]{THEME}/images/logopost.png[/img]



Агент Наджика / Najica Blitz Tactics

Сезон 1, Эпизоды с 1 по 12 (из 12)

Год выпуска: 2001
Страна: Япония
Производство студии: Studio Fantasia
Жанр: комедия, приключения, этти

Режиссёр: Нисидзима Кацухико
Автор оригинала: Тасиро Такуя

Озвучка: Русская - Профессиональная (многоголосая, закадровая), Английская - Профессиональная (полное дублирование) + оригинал
Хардсаб: без хардсаба
Софтсаб: есть (русский, английский, встроенный)

Описание: Наджика, красотка, от достоинств которой теряют головы не только мужчины но и женщины, на самом деле живёт двойной жизнью... Многие знают её как модного парфюмера, но её основное занятие - шпионаж! Она - секретный агент, который справится с любым заданием. Ведь когда бессильно оружие и боевые исскуства, Наджика без промедления пустит в ход свои неотразимые женские чары! Ей предстоят путешествия по разным континентам, сражения с применением самой невероятной военной техники и, конечно же, головокружительные любовные похождения. Но с каждым новым приключением она неумолимо приближается к своей главной битве - поединку с армией хуманидов, искусственных людей, жаждущих власти над миром.

"Список эпизодов:" ▼01. A Magnificent Secret Agent with a Rose in her Hand
02. A Pretty Partner with a Gun in her Hands
03. Ugly Relics in the Jet Black Darkness
04. The Fictitious Star with a Sweet Trap-like Perfume
05. A crimson horizon appears with a empty dream.
06. The beautiful eye of the wild beast appears with the shadow…
07. The bullet of murderous intent appears with a dry smile.
08. The sky of the desire appears with the flame by the battle.
09. A brave lion in the desert appears with the goddess of the destiny.
10. The terminal station of the fight appears with dangerous love.
11. The sad parting mission with girl’s sincerity.
12. A splendid agent has the rose of the encounter in the mind.

Качество: DVDRip
Продолжительность: 1 эпизод - 23 минуты

Формат: MKV
Видео кодек: XviD
Аудио кодек: OGG Vorbis, AC3
Свойства видео: 640x480, 23.976 fps, 1,080 Kbps, 0.147 bit/pixel
Свойства аудио:
Jap - OGG Vorbis, 48.0 KHz, 144 Kbps
Rus - AC3, 48.0 KHz, 384 Kbps
Eng - OGG Vorbis, 48.0 KHz, 144 Kbps

Отчет по MediaInfo ▼TextVideo #1
ID : 1
Format : MPEG-4 Visual
Format profile : Advanced [email protected]
Format settings, BVOP : Yes
Format settings, QPel : No
Format settings, GMC : No warppoints
Format settings, Matrix : Default (MPEG)
Codec ID : XVID
Codec ID/Hint : XviD
Duration : 23mn 16s
Bit rate : 1 080 Kbps
Width : 640 pixels
Height : 480 pixels
Display aspect ratio : 4:3
Frame rate : 23.976 fps
Color space : YUV
Chroma subsampling : 4:2:0
Bit depth : 8 bits
Scan type : Progressive
Compression mode : Lossy
Bits/(Pixel*Frame) : 0.147
Stream size : 180 MiB (60%)
Writing library : XviD 1.2.0SMP (UTC 2006-01-08)
Audio #2
ID : 2
Format : Vorbis
Format settings, Floor : 1
Codec ID : A_VORBIS
Duration : 23mn 16s
Bit rate mode : Variable
Bit rate : 144 Kbps
Channel(s) : 2 channels
Sampling rate : 48.0 KHz
Compression mode : Lossy
Delay relative to video : 11ms
Stream size : 24.0 MiB (8%)
Title : Japanese
Writing library : aoTuV Beta 4.51 (UTC 2005-11-17)
 
56620ae01be3154b8693a074edec58be150ea3f5Агент Наджика / Najica Blitz Tactics // Сезон 1, Эпизоды с 1 по 12 (из 12) (2001) [DVDRip, профессиональная (многоголосая) + оригинал, софтсаб] Агент Наджика / Najica Blitz Tactics // Сезон 1, Эпизоды с 1 по 12 (из 12) (2001) [DVDRip, профессиональная (многоголосая) + оригинал, софтсаб] " />

Аплоадер: Админ, дата: 2-07-2012, 20:14, торрент скачан: 359 раз

Понравилась раздача? Посмотрите эти:
  • Карас / Karas // OVA, Эпизоды с 1 по 6 (из 6) (2005) [BDRip, Профессиональн ...
  • Мужество / Wymyk (Грег Зглински, драма, 2011) [DVDRip, Любительский (одного ...
  • Айрис / IRIS // Сезон 2, Эпизоды с 1 по 12 (из 20) (2013) [HDTVRip, оригин ...
  • Айрис / IRIS // Сезон 2, Эпизоды с 1 по 11 (из 20) (2013) [HDTVRip, оригин ...
  • Айрис / IRIS // Сезон 2, Эпизоды с 1 по 6 (из 20) (2013) [HDTVRip, оригина ...
  • Айрис / IRIS // Сезон 2, Эпизоды с 1 по 4 (из 20) (2013) [HDTVRip, оригина ...
  • Айрис / IRIS // Сезон 2, Эпизоды с 1 по 3 (из 20) (2013) [HDTVRip, оригина ...
  • Чемпионат Испании 2011-12 / 33-й тур / Атлетико М - Реал М / НТВ+ [Футбол, ...
  • Чемпионат Европы 2012 / Группа C / 1-й тур / Ирландия — Хорватия / ТРК Футб ...
  • Олимпиада 2012 / Мужчины / Группа D / 1-й тур / Испания — Япония / НТВ+ [Фу ...
  • Олимпиада 2012 / Футбол / Мужчины / Группа A / 3-й тур / Великобритания - У ...
  • Формула 1 / Сезон 2012 / Этап 18 из 20 / Гран-при ОАЭ (Абу-Даби) / Квалифик ...
  • Tank Feat. T.I. & Kris Stephens / Compliments [2012, RnB,Hip-Hop, HDRip]
  • Чемпионат Европы 2012 / Группа B / 1-й тур / Германия - Португалия / Спорт ...
  • Алхимическое оружие / Busou Renkin // Сезон 1, Эпизоды с 1 по 26 (из 26) (2 ...
  • Товарищеский матч 2012 / АмаЗулу (ЮАР) - Манчестер Юнайтед (Англия) / MU TV ...
  • Чемпионат России 2012-13 / 1-й тур / Мордовия - Локомотив / НТВ+ [Футбол, 2 ...
  • Олимпиада 2012 / Женщины, Мужчины / Плавание / Квалификация / НТВ+ [30.07.2 ...
  • ХХХ Летние Олимпийские Игры / Лёгкая атлетика / День 8 / Вечер [10.08.2012, ...
  • Ван Пис / One Piece / Сезон 15, Эпизод 559 (2012) [HDTVRip, любительская (о ...
  • Информация
    Посетители, находящиеся в группе Гости, не могут оставлять комментарии к данной публикации.