вход на сайт

Имя пользователя :
Пароль :

Восстановление пароля Регистрация
Наруто: Ураганные хроники / Naruto Shippuuden // Сезон 2, Эпизод 293 (2012) [WEB-DL 720p, любительская (одноголосая, RainDeath)]
Рейтинг:
(голосов: 1)



[img]{THEME}/images/logopost.png[/img]



Наруто: Ураганные хроники / Naruto Shippuuden

Сезон 2, Эпизод 293


Год выпуска: 2012
Страна: Япония
Производство студии: Studio Pierrot
Жанр: приключения, боевые искусства, сёнэн

Режиссёр: Датэ Хаято
Автор оригинала: Кисимото Масаси

Перевод: AkaiSasori & RainDeath
Озвучка: RainDeath
Хардсаб: без хардсаба
Софтсаб: нет

Описание: В мире Наруто незаметно пролетели два года. Бывшие новички пополнили ряды опытных синоби в ранге тюнин и дзёнин. Главные герои не сидели на месте – каждый стал учеником одного из легендарных Саннин – трех великих ниндзя Конохи. Парень в оранжевом продолжил обучение у мудрого, но эксцентричного Дзирайи, постепенно восходя на новую ступень боевого мастерства. Сакура выдвинулась в помощницы и доверенные лица целительницы Цунадэ – нового вождя Деревни Листвы. Ну а Саскэ, чья гордыня привела к изгнанию из Конохи, вступил во временный союз со зловещим Оротимару, причем каждый считает, что лишь использует другого до поры до времени.

Краткая передышка закончилась, и события в очередной раз понеслись с ураганной быстротой. В Конохе вновь прорастают семена старых раздоров, посеянные первыми Хокагэ. Таинственный лидер Акацуки привел в действие план обретения мирового господства. Неспокойно в Деревне Песка и соседних странах, везде всплывают старые тайны, и ясно, что когда-то придется платить по счетам. Долгожданное продолжение манги вдохнуло новую жизнь в сериал и новую надежду в сердца бесчисленных фанатов!

Качество: WEB-DL 720p
Продолжительность: 25 мин.

Формат: MKV
Видео кодек: H.264
Аудио кодек: MP3
Видео: 1280x720, 23,962 fps, ~1139 kbps, 0.045 bit/pixel
Аудио: MP3, 128 kbps, 44.1 KHz

MediaInfo ▼Text
Format : Matroska
Format version : Version 2
File size : 190 MiB
Duration : 23mn 20s
Overall bit rate : 1 139 Kbps
Encoded date : UTC 2012-12-13 13:34:59
Writing application : mkvmerge v2.9.8 (Cest le bon) built on Aug 13 2009 12:49:06
Writing library : libebml v0.7.7 + libmatroska v0.8.1
Attachment : Yes
Video #2
ID : 2
Format : AVC
Format/Info : Advanced Video Codec
Format profile : [email protected]
Format settings, CABAC : Yes
Format settings, ReFrames : 5 frames
Codec ID : V_MPEG4/ISO/AVC
Duration : 23mn 20s
Bit rate : 988 Kbps
Width : 1 280 pixels
Height : 720 pixels
Display aspect ratio : 16:9
Frame rate mode : Constant
Frame rate : 23.962 fps
Color space : YUV
Chroma subsampling : 4:2:0
Bit depth : 8 bits
Scan type : Progressive
Bits/(Pixel*Frame) : 0.045
Stream size : 165 MiB (87%)
Default : No
Forced : No
Audio #1
ID : 1
Format : MPEG Audio
Format version : Version 1
Format profile : Layer 3
Mode : Joint stereo
Mode extension : MS Stereo
Codec ID : A_MPEG/L3
Codec ID/Hint : MP3
Duration : 23mn 20s
Bit rate mode : Constant
Bit rate : 128 Kbps
Channel(s) : 2 channels
Sampling rate : 44.1 KHz
Compression mode : Lossy
Delay relative to video : -83ms
Stream size : 21.4 MiB (11%)
Default : Yes
Forc
1f55bbb6bd6ae617af88037ca83895ec9c96e50cНаруто: Ураганные хроники / Naruto Shippuuden // Сезон 2, Эпизод 293 (2012) [WEB-DL 720p, любительская (одноголосая, RainDeath)] Наруто: Ураганные хроники / Naruto Shippuuden // Сезон 2, Эпизод 293 (2012) [WEB-DL 720p, любительская (одноголосая, RainDeath)] " />

Аплоадер: Админ, дата: 13-12-2012, 20:13, торрент скачан: 359 раз

Понравилась раздача? Посмотрите эти:
  • Наруто: Ураганные хроники / Naruto Shippuuden // Сезон 2, Эпизод 343 (2013) ...
  • Наруто: Ураганные хроники / Naruto Shippuuden // Сезон 2, Эпизод 345 (2014) ...
  • Наруто: Ураганные хроники / Naruto Shippuuden // Сезон 2, Эпизод 346 (2014) ...
  • Наруто: Ураганные хроники / Naruto Shippuuden // Сезон 2, Эпизод 329 (2013) ...
  • Наруто: Ураганные хроники / Naruto Shippuuden // Сезон 2, Эпизод 328 (2013) ...
  • Наруто: Ураганные хроники / Naruto Shippuuden // Сезон 2, Эпизод 327 (2013) ...
  • Наруто: Ураганные хроники / Naruto Shippuuden // Сезон 2, Эпизод 316 (2013) ...
  • Наруто: Ураганные хроники / Naruto Shippuuden // Сезон 2, Эпизод 317 (2013) ...
  • Наруто: Ураганные хроники / Naruto Shippuuden // Сезон 2, Эпизод 319 (2013) ...
  • Наруто: Ураганные хроники / Naruto Shippuuden // Сезон 2, Эпизод 320 (2013) ...
  • Наруто: Ураганные хроники / Naruto Shippuuden // Сезон 2, Эпизод 314 (2013) ...
  • Наруто: Ураганные хроники / Naruto Shippuuden // Сезон 2, Эпизод 312 (2013) ...
  • Наруто: Ураганные хроники / Naruto Shippuuden // Сезон 2, Эпизод 313 (2013) ...
  • Наруто: Ураганные хроники / Naruto Shippuuden // Сезон 2, Эпизод 310 (2013) ...
  • Наруто: Ураганные хроники / Naruto Shippuuden // Сезон 2, Эпизод 311 (2013) ...
  • Наруто: Ураганные хроники / Naruto Shippuuden // Сезон 2, Эпизод 309 (2013) ...
  • Наруто: Ураганные хроники / Naruto Shippuuden // Сезон 2, Эпизод 308 (2013) ...
  • Наруто: Ураганные хроники / Naruto Shippuuden // Сезон 2, Эпизод 307 (2013) ...
  • Наруто: Ураганные хроники / Naruto Shippuuden // Сезон 2, Эпизод 306 (2013) ...
  • Наруто: Ураганные хроники / Naruto Shippuuden // Сезон 2, Эпизод 304 (2013) ...
  • Наруто: Ураганные хроники / Naruto Shippuuden // Сезон 2, Эпизод 298 (2013) ...
  • Наруто: Ураганные хроники / Naruto Shippuuden // Сезон 2, Эпизод 299 (2013) ...
  • Наруто: Ураганные хроники / Naruto Shippuuden // Сезон 2, Эпизод 300 (2013) ...
  • Наруто: Ураганные хроники / Naruto Shippuuden // Сезон 2, Эпизод 301 (2013) ...
  • Наруто: Ураганные хроники / Naruto Shippuuden // Сезон 2, Эпизод 297 (2013) ...
  • Информация
    Посетители, находящиеся в группе Гости, не могут оставлять комментарии к данной публикации.