вход на сайт

Имя пользователя :
Пароль :

Восстановление пароля Регистрация
Наруто: Ураганные хроники / Naruto Shippuuden // Сезон 2, Эпизод 320 (2013) [WEB-DLRip, любительская (одноголосая, OVERLORDS)]
Рейтинг:
(голосов: 1)



[img]{THEME}/images/logopost.png[/img]



Наруто: Ураганные хроники / Naruto Shippuuden

Сезон 2, Эпизод 320

Год выпуска: 2013
Страна:Япония
Производство студии: Studio Pierrot
Жанр: Приключения, боевые искусства, сёнэн

Режиссёр: Датэ Хаято
Автор оригинала: Кисимото Масаси

Перевод: OVERLORDS
Озвучка: Любительская (одноголосая, OVERLORDS)
Хардсаб: Нет
Софтсаб: Нет

Список эпизодов: ▼320. Беги Омой!

Описание: В мире Наруто незаметно пролетели два года. Бывшие новички пополнили ряды опытных синоби в ранге тюнин и дзёнин. Главные герои не сидели на месте – каждый стал учеником одного из легендарных Саннин – трех великих ниндзя Конохи. Парень в оранжевом продолжил обучение у мудрого, но эксцентричного Дзирайи, постепенно восходя на новую ступень боевого мастерства. Сакура выдвинулась в помощницы и доверенные лица целительницы Цунадэ – нового вождя Деревни Листвы. Ну а Саскэ, чья гордыня привела к изгнанию из Конохи, вступил во временный союз со зловещим Оротимару, причем каждый считает, что лишь использует другого до поры до времени.

Краткая передышка закончилась, и события в очередной раз понеслись с ураганной быстротой. В Конохе вновь прорастают семена старых раздоров, посеянные первыми Хокагэ. Таинственный лидер Акацуки привел в действие план обретения мирового господства. Неспокойно в Деревне Песка и соседних странах, везде всплывают старые тайны, и ясно, что когда-то придется платить по счетам. Долгожданное продолжение манги вдохнуло новую жизнь в сериал и новую надежду в сердца бесчисленных фанатов!
© Hollow, World Art

Качество: WEB-DLRip
Продолжительность: 1 эпизод - 25 минут

Формат: MP4
Видео кодек: x264
Аудио кодек: MP3
Свойства видео:640x362, 1135 kbps/sek, 29.970fps, 0,149 bit/pixel
Свойства аудио:AAC, 22050Hz, stereo, 75kbps, 2 ch

отчет MediaInfo ▼TextОбщее
Полное имя : C:UsersGreenBOXDownloadsNaruto+Shippuuden+320+русская+озвучка+OVERLORDS.mp4
Формат : MPEG-4
Идентификатор кодека : M4V
Размер файла : 190 Мбайт
Продолжительность : 23 м.
Режим общего битрейта : Переменный
Общий поток : 1135 Кбит/сек
Программа кодирования : Lavf54.22.100

Видео
Идентификатор : 1
Формат : AVC
Формат/Информация : Advanced Video Codec
Профиль формата : [email protected]
Параметр CABAC формата : Нет
Параметр ReFrames формата : 3 кадра
Идентификатор кодека : avc1
Идентификатор кодека/Информация : Advanced Video Coding
Продолжительность : 23 м.
Битрейт : 1032 Кбит/сек
Ширина : 640 пикселей
Высота : 362 пикселя
Соотношение сторон : 16:9
Соотношение сторон в оригинале : 16:9
Режим частоты кадров : Постоянный
Частота кадров : 29,970 кадров/сек
Цветовое пространство : YUV
Субдискретизация насыщенности : 4:2:0
Битовая глубина : 8 бит
Тип развёртки : Прогрессивная
Бит/(Пиксели*Кадры) : 0.149
Размер потока : 176 Мбайт (93%)
Библиотека кодирования : x264 core 125
Настройки программы : cabac=0 / ref=3 / deblock=1:-1:-1 / analyse=0x1:0x111 / me=hex / subme=7 / psy=1 / psy_rd=1.00:0.15 / mixed_ref=1 / me_range=16 / chroma_me=1 / trellis=1 / 8x8dct=0 / cqm=0 / deadzone=21,11 / fast_pskip=1 / chroma_qp_offset=-3 / threads=12 / lookahead_threads=2 / sliced_threads=0 / nr=0 / decimate=1 / interlaced=0 / bluray_compat=0 / constrained_intra=0 / bframes=0 / weightp=0 / keyint=25 / keyint_min=2 / scenecut=40 / intra_refresh=0 / rc_lookahead=25 / rc=abr / mbtree=1 / bitrate=1032 / ratetol=1.0 / qcomp=0.60 / qpmin=0 / qpmax=69 / qpstep=4 / ip_ratio=1.40 / aq=1:1.00

Аудио
Идентификатор : 2
Формат : AAC
Формат/Информация : Advanced Audio Codec
Профиль формата : LC
Идентификатор кодека : 40
Продолжительность : 23 м.
Duration_LastFrame : -26 мс.
Вид битрейта : Переменный
Битрейт : 75,8 Кбит/сек
Максимальный битрейт : 131 Кбит/сек
Каналы : 2 канала
Расположение каналов : Front: L R
Частота : 22,05 КГц
Метод сжатия : С потерями
Размер потока : 12,6 Мбайт (7%)


6e13f38dc9a0db241fb6732470fb4c0488be96b8 Наруто: Ураганные хроники / Naruto Shippuuden // Сезон 2, Эпизод 320 (2013) [WEB-DLRip, любительская (одноголосая, OVERLORDS)] Наруто: Ураганные хроники / Naruto Shippuuden // Сезон 2, Эпизод 320 (2013) [WEB-DLRip, любительская (одноголосая, OVERLORDS)] " />

Аплоадер: Админ, дата: 4-07-2013, 21:26, торрент скачан: 359 раз

Понравилась раздача? Посмотрите эти:
  • Наруто: Ураганные хроники / Naruto Shippuuden // Сезон 2, Эпизод 344 (2014) ...
  • Наруто: Ураганные хроники / Naruto Shippuuden // Сезон 2, эпизод 330 (2013) ...
  • Наруто: Ураганные хроники / Naruto Shippuuden // Сезон 2, эпизод 331 (2013) ...
  • Наруто: Ураганные хроники / Naruto Shippuuden // Сезон 2, Эпизод 332 (2013) ...
  • Наруто: Ураганные хроники / Naruto Shippuuden // Сезон 2, Эпизод 333 (2013) ...
  • Наруто: Ураганные хроники / Naruto Shippuuden // Сезон 2, Эпизод 334 (2013) ...
  • Наруто: Ураганные хроники / Naruto Shippuuden // Сезон 2, Эпизод 335 (2013) ...
  • Наруто: Ураганные хроники / Naruto Shippuuden // Сезон 2, Эпизод 327 (2013) ...
  • Наруто: Ураганные хроники / Naruto Shippuuden // Сезон 2, Эпизод 319 (2013) ...
  • Наруто: Ураганные хроники / Naruto Shippuuden // Сезон 2, Эпизод 321 (2013) ...
  • Наруто: Ураганные хроники / Naruto Shippuuden // Сезон 2, Эпизод 322 (2013) ...
  • Наруто: Ураганные хроники / Naruto Shippuuden // Сезон 2, Эпизод 323 (2013) ...
  • Наруто: Ураганные хроники / Naruto Shippuuden // Сезон 2, Эпизод 324 (2013) ...
  • Наруто: Ураганные хроники / Naruto Shippuuden // Сезон 2, Эпизод 246 (2012) ...
  • Наруто: Ураганные хроники / Naruto Shippuuden // Сезон 2, Эпизод 251 (2012) ...
  • Наруто: Ураганные хроники / Naruto Shippuuden // Сезон 2, Эпизод 252 (2012) ...
  • Наруто: Ураганные хроники / Naruto Shippuuden // Сезон 2, Эпизод 257 (2012) ...
  • Наруто: Ураганные хроники / Naruto Shippuuden // Сезон 2, Эпизод 258 (2012) ...
  • Наруто: Ураганные хроники / Naruto Shippuuden // Сезон 2, Эпизод 261 (2012) ...
  • Наруто: Ураганные хроники / Naruto Shippuuden // Сезон 2, Эпизод 265 (2012) ...
  • Информация
    Посетители, находящиеся в группе Гости, не могут оставлять комментарии к данной публикации.