вход на сайт

Имя пользователя :
Пароль :

Восстановление пароля Регистрация
Наруто: Ураганные хроники / Naruto Shippuuden // Сезон 2, Эпизод 276 (2012) [TVRip, любительская (одноголосая, Rain.Death)]
Рейтинг:
(голосов: 1)



[img]{THEME}/images/logopost.png[/img]



Наруто: Ураганные хроники / Naruto Shippuuden

Сезон 2, Эпизод 276

Год выпуска: 2012
Страна: Япония
Производство студии: Studio Pierrot
Жанр: приключения, комедия, боевые искусства, сёнэн

Режиссёр: Хаято Датэ
Автор оригинала: Кисимото Масаси

Перевод: Uzumaki team
Озвучка: любительская (одноголосая, Rain.Death)
Хардсаб: нет
Софтсаб: нет

Описание: В мире Наруто незаметно пролетели два года. Бывшие новички пополнили ряды опытных шиноби в ранге джанин и чанин. Главные герои не сидели на месте – каждый стал учеником одного из легендарных Саннин – трех великих ниндзя Конохи. Парень в оранжевом продолжил обучение у мудрого, но эксцентричного Джирайи, постепенно восходя на новую ступень боевого мастерства. Сакура выдвинулась в помощницы и доверенные лица целительницы Цунадэ – нового хокаге Деревни Листвы. Ну а Саскэ, чья гордыня привела к изгнанию из Конохи, вступил во временный союз со зловещим Орочимару, причем каждый считает, что лишь использует другого до поры до времени.

Краткая передышка закончилась, и события в очередной раз понеслись с ураганной быстротой. В Конохе вновь прорастают семена старых раздоров, посеянные первыми Хокагэ. Таинственный лидер Акацуки привел в действие план обретения мирового господства. Неспокойно в Деревне Песка и соседних странах, везде всплывают старые тайны, и ясно, что когда-то придется платить по счетам. Долгожданное продолжение манги вдохнуло новую жизнь в сериал и новую надежду в сердца бесчисленных фанатов!

Список эпизодов: 276. Атака Гедо статуи

Качество: TVRip
Продолжительность: 25 минут

Формат: MP4
Видео кодек: H264
Аудио кодек: MP3
Свойства видео: 848x480, 23.976fps, ~ 768 Kbps, 0.079 bit/pixel
Свойства аудио: R44.1 KHz, 128kbps, 2ch

"Отчет MediaInfo" ▼Text
Видео:
Идентификатор : 1
Формат : AVC
Формат/Информация : Advanced Video Codec
Профиль формата : [email protected]
Параметр CABAC формата : Да
Параметр ReFrames формата : 6 кадров
Идентификатор кодека : avc1
Идентификатор кодека/Информация : Advanced Video Coding
Продолжительность : 23 м.
Битрейт : 768 Кбит/сек
Максимальный битрейт : 3829 Кбит/сек
Ширина : 848 пикселей
Высота : 480 пикселей
Соотношение сторон : 16:9
Режим частоты кадров : Постоянный
Частота кадров : 23,976 кадра/сек
Цветовое пространство : YUV
Субдискретизация насыщенности : 4:2:0
Битовая глубина : 8 бит
Тип развёртки : Прогрессивная
Бит/(Пиксели*Кадры) : 0.079
Размер потока : 127 Мбайт (85%)
Библиотека кодирования : x264 core 120 r2120 0c7dab9
Настройки программы : cabac=1 / ref=6 / deblock=1:1:1 / analyse=0x1:0x111 / me=umh / subme=8 / psy=1 / psy_rd=0.40:0.00 / mixed_ref=1 / me_range=16 / chroma_me=1 / trellis=1 / 8x8dct=0 / cqm=0 / deadzone=21,11 / fast_pskip=1 / chroma_qp_offset=-2 / threads=4 / sliced_threads=0 / nr=0 / decimate=1 / interlaced=0 / bluray_compat=0 / constrained_intra=0 / bframes=3 / b_pyramid=2 / b_adapt=2 / b_bias=0 / direct=3 / weightb=1 / open_gop=0 / weightp=2 / keyint=250 / keyint_min=23 / scenecut=40 / intra_refresh=0 / rc_lookahead=50 / rc=2pass / mbtree=1 / bitrate=768 / ratetol=1.0 / qcomp=0.60 / qpmin=0 / qpmax=69 / qpstep=4 / cplxblur=20.0 / qblur=0.5 / vbv_maxrate=1536 / vbv_bufsize=3840 / nal_hrd=none / ip_ratio=1.40 / aq=1:0.60
Дата кодирования : UTC 2012-08-22 13:07:20
Дата пометки : UTC 2012-08-22 13:07:23

Аудио:
Идентификатор : 2
Формат : MPEG Audio
Версия формата : Version 1
Профиль формата : Layer 3
Режим : Joint stereo
Расширение режима : MS Stereo
Идентификатор кодека : 6B
Продолжительность : 23 м.
Вид битрейта : Постоянный
Битрейт : 128 Кбит/сек
Максимальный битрейт : 134 Кбит/сек
Каналы : 2 канала
Частота : 44,1 КГц
Метод сжатия : С потерями
Размер потока : 21,2 Мбайт (14%)
Дата кодирования : UTC 2012-08-22 13:07:22
Дата пометки : UTC 2012-08-22 13:07:23


da233e677bb3a0fd36d3b23c1c3a7c596e4f335cНаруто: Ураганные хроники / Naruto Shippuuden // Сезон 2, Эпизод 276 (2012) [TVRip, любительская (одноголосая, Rain.Death)] Наруто: Ураганные хроники / Naruto Shippuuden // Сезон 2, Эпизод 276 (2012) [TVRip, любительская (одноголосая, Rain.Death)] " />

Аплоадер: Админ, дата: 23-08-2012, 21:27, торрент скачан: 359 раз

Понравилась раздача? Посмотрите эти:
  • Наруто: Ураганные хроники / Naruto Shippuuden // Сезон 2, Эпизод 327 (2013) ...
  • Наруто: Ураганные хроники / Naruto Shippuuden // Сезон 2, Эпизод 319 (2013) ...
  • Наруто: Ураганные хроники / Naruto Shippuuden // Сезон 2, Эпизод 320 (2013 ...
  • Наруто: Ураганные хроники / Naruto Shippuuden // Сезон 2, Эпизод 254 (2012) ...
  • Наруто: Ураганные хроники / Naruto Shippuuden // Сезон 2, Эпизод 257 (2012 ...
  • Наруто: Ураганные хроники / Naruto Shippuuden // Сезон 2, Эпизод 263 (2012) ...
  • Наруто: Ураганные хроники / Naruto Shippuuden // Сезон 2, Эпизод 246 (2012) ...
  • Наруто: Ураганные хроники / Naruto Shippuuden // Сезон 2, Эпизод 252 (2012) ...
  • Наруто: Ураганные хроники / Naruto Shippuuden // Сезон 2, Эпизод 253 (2012) ...
  • Наруто: Ураганные хроники / Naruto Shippuuden // Сезон 2, Эпизод 258 (2012) ...
  • Наруто: Ураганные хроники / Naruto Shippuuden // Сезон 2, Эпизод 258 (2012) ...
  • Наруто: Ураганные хроники / Naruto Shippuuden // Сезон 2, Эпизод 259 (2012) ...
  • Наруто: Ураганные хроники / Naruto Shippuuden // Сезон 2, Эпизод 260 (2012) ...
  • Наруто: Ураганные хроники / Naruto Shippuuden // Сезон 2, Эпизод 260 (2012) ...
  • Наруто: Ураганные хроники / Naruto Shippuuden // Сезон 2, Эпизод 260 (2012) ...
  • Наруто: Ураганные хроники / Naruto Shippuuden // Сезон 2, Эпизод 261 (2012) ...
  • Наруто: Ураганные хроники / Naruto Shippuuden // Сезон 2, Эпизод 262 (2012) ...
  • Наруто: Ураганные хроники / Naruto Shippuuden // Сезон 2, Эпизод 263 (2012) ...
  • Наруто: Ураганные хроники / Naruto Shippuuden // Сезон 2, Эпизод 263 (2012) ...
  • Наруто: Ураганные хроники / Naruto Shippuuden // Сезон 2, Эпизод 266 (2012) ...
  • Наруто: Ураганные хроники / Naruto Shippuuden // Сезон 2, Эпизод 266 (2012) ...
  • Наруто: Ураганные хроники / Naruto Shippuuden // Сезон 2, Эпизод 270 (2012) ...
  • Наруто: Ураганные хроники / Naruto Shippuuden // Сезон 2, Эпизод 271 (2012 ...
  • Наруто: Ураганные хроники / Naruto Shippuuden // Сезон 2, Эпизод 273 (2012 ...
  • Наруто: Ураганные хроники / Naruto Shippuuden // Сезон 2, Эпизод 274 (2012 ...
  • Информация
    Посетители, находящиеся в группе Гости, не могут оставлять комментарии к данной публикации.