вход на сайт

Имя пользователя :
Пароль :

Восстановление пароля Регистрация
Ван Пис / One Piece / Сезон 15, Эпизод 565 (2012) [HDTVRip, любительская (одноголосая, Persona99) + оригинал, софтсаб]
Рейтинг:
(голосов: 1)



[img]{THEME}/images/logopost.png[/img]



Ван Пис / One Piece

Сезон 15, Эпизод 565

Год выпуска: 2012
Страна:Япония
Производство студии: Toei Animation
Жанр: приключения, комедия, фэнтези, сёнэн

Режиссёр: Уда Коносукэ
Автор оригинала: Ода Эйичиро

Перевод: One Piece.ru
Озвучка: Любительская (одноголосая, Persona99) + оригинал
Хардсаб: без хардсаба
Софтсаб: есть (русский, встроенный)

Описание: Это было во времена, когда пираты были владыками морей.
Множество кораблей бороздили океаны, сражаясь между собой, в поисках величайшего в мире сокровища,имя которому One Piece. Эта благодать была собрана за долгие годы приключений легендарным пиратским капитаном, Золотым Роджером, который по праву заслужил титул Короля Пиратов.
Наш главный герой - простой парнишка по имени Манки Д. Луффи, который всегда хотел стать пиратом.
Однажды, он случайно съел один из Дьявольских фруктов, которые даруют людям нечеловеческие возможности,и стал резиновым человеком - лучше увидеть самим.

Список эпизодов ▼565. Вложив всю силу в удар!Взрыв Красного Ястреба!
Качество: HDTVRip
Продолжительность: 24 мин.

Формат: MKV
Видео кодек: H.264
Аудио кодек: AC3
Свойства видео: 1280x720, 29.970 fps, ~1 706 kbps, 0.062 bit/pixel
Свойства аудио: RU - AC3, 48.0kHz, 192 Kbps | JP - AC3, 48.0kHz, 192 Kbps
Отчёт MediaInfo ▼TextVideo #1
ID : 1
Format : AVC
Format/Info : Advanced Video Codec
Format profile : [email protected]
Format settings, CABAC : Yes
Format settings, ReFrames : 9 frames
Codec ID : V_MPEG4/ISO/AVC
Duration : 23mn 39s
Bit rate : 1 706 Kbps
Width : 1 280 pixels
Height : 720 pixels
Display aspect ratio : 16:9
Frame rate mode : Variable
Frame rate : 29.970 fps
Color space : YUV
Chroma subsampling : 4:2:0
Bit depth : 8 bits
Scan type : Progressive
Bits/(Pixel*Frame) : 0.062
Stream size : 289 MiB (80%)
Writing library : x264 core 128 r2216 198a7ea
Encoding settings : cabac=1 / ref=9 / deblock=1:1:1 / analyse=0x3:0x133 / me=umh / subme=10 / psy=1 / psy_rd=1.00:0.00 / mixed_ref=1 / me_range=24 / chroma_me=1 / trellis=2 / 8x8dct=1 / cqm=0 / deadzone=21,11 / fast_pskip=1 / chroma_qp_offset=-2 / threads=3 / lookahead_threads=1 / sliced_threads=0 / nr=0 / decimate=1 / interlaced=0 / bluray_compat=0 / constrained_intra=0 / bframes=7 / b_pyramid=2 / b_adapt=2 / b_bias=0 / direct=3 / weightb=1 / open_gop=0 / weightp=2 / keyint=300 / keyint_min=29 / scenecut=40 / intra_refresh=0 / rc_lookahead=60 / rc=crf / mbtree=1 / crf=18.0 / qcomp=0.60 / qpmin=0 / qpmax=69 / qpstep=4 / ip_ratio=1.40 / aq=1:1.00
Matrix coefficients : BT.709-5, BT.1361, IEC 61966-2-4 709, SMPTE RP177
Audio #2
ID : 2
Format : AC-3
Format/Info : Audio Coding 3
Mode extension : CM (complete main)
Codec ID : A_AC3
Duration : 23mn 39s
Bit rate mode : Constant
Bit rate : 192 Kbps
Channel(s) : 2 channels
Channel positions : Front: L R
Sampling rate : 48.0 KHz
Bit depth : 16 bits
Compression mode : Lossy
Stream size : 32.5 MiB (9%)
Title : Persona99
Language : Russian
Audio #3
ID : 3
Format : AC-3
Format/Info : Audio Coding 3
Mode extension : CM (complete main)
Codec I
9a605ded81cf5f7f5c5eeebd5968da1d83b6193dВан Пис / One Piece / Сезон 15, Эпизод 565 (2012) [HDTVRip, любительская (одноголосая, Persona99) + оригинал, софтсаб] Ван Пис / One Piece / Сезон 15, Эпизод 565 (2012) [HDTVRip, любительская (одноголосая, Persona99) + оригинал, софтсаб] " />

Аплоадер: Админ, дата: 25-09-2012, 14:35, торрент скачан: 359 раз

Понравилась раздача? Посмотрите эти:
  • Ван Пис / One Piece // Сезон 15, Эпизод 551 (2012) [HDTVRip, оригинал, софт ...
  • Ван Пис / One Piece / Сезон 15, Эпизод 569 (2012) [HDTVRip, любительская (о ...
  • Ван Пис / One Piece / Сезон 15, Эпизод 570 (2012) [HDTVRip, любительская (о ...
  • Ван Пис / One Piece // Сезон 15, Эпизод 545 (2012) [HDTVRip, любительская ( ...
  • Ван Пис / One Piece // Сезон 15, Эпизод 546 (2012) [HDTVRip, любительская ( ...
  • Ван Пис / One Piece // Сезон 15, Эпизод 547 (2012) [HDTVRip, любительская ( ...
  • Ван Пис / One Piece // Сезон 15, Эпизод 548 (2012) [HDTVRip, любительская ( ...
  • Ван Пис / One Piece // Сезон 15, Эпизод 549 (2012) [HDTVRip, любительская ( ...
  • Ван Пис / One Piece /Сезон 15, Эпизод 550 (2012) [HDTVRip, любительская (од ...
  • Ван Пис / One Piece /Сезон 15, Эпизод 551 (2012) [HDTVRip, любительская (од ...
  • Ван Пис / One Piece /Сезон 15, Эпизод 552 (2012) [HDTVRip, любительская (од ...
  • Ван Пис / One Piece /Сезон 15, Эпизод 553 (2012) [HDTVRip, любительская (од ...
  • Ван Пис / One Piece / Сезон 15, Эпизод 554 (2012) [HDTVRip, любительская (о ...
  • Ван Пис / One Piece / Сезон 15, Эпизод 555 (2012) [HDTVRip, любительская (о ...
  • Ван Пис / One Piece / Сезон 15, Эпизод 556 (2012) [HDTVRip, любительская (о ...
  • Ван Пис / One Piece / Сезон 15, Эпизод 557 (2012) [HDTVRip, любительская (о ...
  • Ван Пис / One Piece / Сезон 15, Эпизод 558 (2012) [HDTVRip, любительская (о ...
  • Ван Пис / One Piece / Сезон 15, Эпизод 559 (2012) [HDTVRip, любительская (о ...
  • Ван Пис / One Piece / Сезон 15, Эпизод 560 (2012) [HDTVRip, любительская (о ...
  • Ван Пис / One Piece / Сезон 15, Эпизод 561 (2012) [HDTVRip, любительская (о ...
  • Ван Пис / One Piece / Сезон 15, Эпизод 562 (2012) [HDTVRip, любительская (о ...
  • Ван Пис / One Piece / Сезон 15, Эпизод 563 (2012) [HDTVRip, любительская (о ...
  • Ван Пис / One Piece / Сезон 15, Эпизод 564 (2012) [HDTVRip, любительская (о ...
  • Ван Пис / One Piece / Сезон 15, Эпизод 566 (2012) [HDTVRip, любительская (о ...
  • Ван Пис / One Piece / Сезон 15, Эпизод 567 (2012) [HDTVRip, любительская (о ...
  • Информация
    Посетители, находящиеся в группе Гости, не могут оставлять комментарии к данной публикации.