вход на сайт

Имя пользователя :
Пароль :

Восстановление пароля Регистрация
Ван Пис / One Piece / Сезон 15, Эпизод 559 (2012) [HDTVRip, любительская (одноголосая, Persona99) + оригинал]
Рейтинг:
(голосов: 1)



[img]{THEME}/images/logopost.png[/img]



Ван Пис / One Piece

Сезон 15, Эпизод 559

Год выпуска: 2012
Страна:Япония
Производство студии: Toei Animation
Жанр: приключения, комедия, фэнтези, сёнэн

Режиссёр: Уда Коносукэ
Автор оригинала: Ода Эйичиро

Перевод: Kage Project
Озвучка: Любительская (одноголосая, Persona99) + оригинал
Хардсаб: без хардсаба
Софтсаб: нет

Описание: Это было во времена, когда пираты были владыками морей.
Множество кораблей бороздили океаны, сражаясь между собой, в поисках величайшего в мире сокровища,имя которому One Piece. Эта благодать была собрана за долгие годы приключений легендарным пиратским капитаном, Золотым Роджером, который по праву заслужил титул Короля Пиратов.
Наш главный герой - простой парнишка по имени Манки Д. Луффи, который всегда хотел стать пиратом.
Однажды, он случайно съел один из Дьявольских фруктов, которые даруют людям нечеловеческие возможности,и стал резиновым человеком - лучше увидеть самим.

Список эпизодов ▼559. Торопись, Луффи! Ширахоши в отчаянном положении!
Качество: HDTVRip
Продолжительность: 24 мин.

Формат: AVI
Видео кодек: XviD
Аудио кодек: AC3
Свойства видео: 704x396, 23.976 fps, ~1 280 kbps, 0.191 bit/pixel
Свойства аудио: RU - AC3, 48.0kHz, 192 Kbps, 2 ch | JP - AC3, 48.0kHz, 192 Kbps, 2 ch
Отчёт MediaInfo ▼TextVideo #0
ID : 0
Format : MPEG-4 Visual
Format profile : Advanced [email protected]
Format settings, BVOP : 2
Format settings, QPel : No
Format settings, GMC : No warppoints
Format settings, Matrix : Default (H.263)
Codec ID : XVID
Codec ID/Hint : XviD
Duration : 23mn 29s
Bit rate : 1 280 Kbps
Width : 704 pixels
Height : 396 pixels
Display aspect ratio : 16:9
Frame rate : 23.976 fps
Color space : YUV
Chroma subsampling : 4:2:0
Bit depth : 8 bits
Scan type : Progressive
Compression mode : Lossy
Bits/(Pixel*Frame) : 0.191
Stream size : 215 MiB (76%)
Writing library : XviD 1.2.1 (UTC 2008-12-04)
Audio #1
ID : 1
Format : AC-3
Format/Info : Audio Coding 3
Mode extension : CM (complete main)
Codec ID : 2000
Duration : 23mn 29s
Bit rate mode : Constant
Bit rate : 192 Kbps
Channel(s) : 2 channels
Channel positions : Front: L R
Sampling rate : 48.0 KHz
Bit depth : 16 bits
Compression mode : Lossy
Stream size : 32.3 MiB (11%)
Alignment : Split accross interleaves
Interleave, duration : 42 ms (1.00 video frame)
Interleave, preload duration : 500 ms
Audio #2
ID : 2
Format : AC-3
Format/Info : Audio Coding 3
Mode extension : CM (complete main)
Codec ID : 2000
Duration : 23mn 29s
Bit rate mode : Constant
Bit rate : 192 Kbps
Channel(s) : 2 channels
Channel positions : Front: L R
Sampling rate : 48.0 KHz
Bit depth : 16 bits
Compression mode : Lossy
Stream size : 32.3 MiB (11%)
Alignment : Split accross interleaves
Interleave, duration : 42 ms (1.00 video frame)
&n
f6a51e0309da606d058b1fb56f5b53da2c07e56aВан Пис / One Piece / Сезон 15, Эпизод 559 (2012) [HDTVRip, любительская (одноголосая, Persona99) + оригинал] Ван Пис / One Piece / Сезон 15, Эпизод 559 (2012) [HDTVRip, любительская (одноголосая, Persona99) + оригинал] " />

Аплоадер: Админ, дата: 13-08-2012, 17:58, торрент скачан: 359 раз

Понравилась раздача? Посмотрите эти:
  • Мужество / Wymyk (Грег Зглински, драма, 2011) [DVDRip, Любительский (одного ...
  • Ван Пис / One Piece / Сезон 15, Эпизод 569 (2012) [HDTVRip, любительская (о ...
  • Ван Пис / One Piece / Сезон 15, Эпизод 570 (2012) [HDTVRip, любительская (о ...
  • Ван Пис / One Piece // Сезон 15, Эпизод 545 (2012) [HDTVRip, любительская ( ...
  • Ван Пис / One Piece // Сезон 15, Эпизод 546 (2012) [HDTVRip, любительская ( ...
  • Ван Пис / One Piece // Сезон 15, Эпизод 547 (2012) [HDTVRip, любительская ( ...
  • Ван Пис / One Piece // Сезон 15, Эпизод 548 (2012) [HDTVRip, любительская ( ...
  • Ван Пис / One Piece // Сезон 15, Эпизод 549 (2012) [HDTVRip, любительская ( ...
  • Ван Пис / One Piece /Сезон 15, Эпизод 550 (2012) [HDTVRip, любительская (од ...
  • Ван Пис / One Piece /Сезон 15, Эпизод 551 (2012) [HDTVRip, любительская (од ...
  • Ван Пис / One Piece /Сезон 15, Эпизод 552 (2012) [HDTVRip, любительская (од ...
  • Ван Пис / One Piece /Сезон 15, Эпизод 553 (2012) [HDTVRip, любительская (од ...
  • Ван Пис / One Piece / Сезон 15, Эпизод 554 (2012) [HDTVRip, любительская (о ...
  • Ван Пис / One Piece / Сезон 15, Эпизод 555 (2012) [HDTVRip, любительская (о ...
  • Ван Пис / One Piece / Сезон 15, Эпизод 556 (2012) [HDTVRip, любительская (о ...
  • Ван Пис / One Piece / Сезон 15, Эпизод 557 (2012) [HDTVRip, любительская (о ...
  • Ван Пис / One Piece / Сезон 15, Эпизод 558 (2012) [HDTVRip, любительская (о ...
  • Ван Пис / One Piece / Сезон 15, Эпизод 560 (2012) [HDTVRip, любительская (о ...
  • Ван Пис / One Piece / Сезон 15, Эпизод 561 (2012) [HDTVRip, любительская (о ...
  • Ван Пис / One Piece / Сезон 15, Эпизод 562 (2012) [HDTVRip, любительская (о ...
  • Ван Пис / One Piece / Сезон 15, Эпизод 563 (2012) [HDTVRip, любительская (о ...
  • Ван Пис / One Piece / Сезон 15, Эпизод 564 (2012) [HDTVRip, любительская (о ...
  • Ван Пис / One Piece / Сезон 15, Эпизод 565 (2012) [HDTVRip, любительская (о ...
  • Ван Пис / One Piece / Сезон 15, Эпизод 566 (2012) [HDTVRip, любительская (о ...
  • Ван Пис / One Piece / Сезон 15, Эпизод 567 (2012) [HDTVRip, любительская (о ...
  • Информация
    Посетители, находящиеся в группе Гости, не могут оставлять комментарии к данной публикации.