вход на сайт

Имя пользователя :
Пароль :

Восстановление пароля Регистрация
Ван Пис / One Piece // Сезон 15, Эпизод 552 (2012) [WebRip, любительская (одноголосая RaiNDeath]
Рейтинг:
(голосов: 1)



[img]{THEME}/images/logopost.png[/img]



Ван Пис / One Piece

Сезон 15, Эпизод 552

Год выпуска: 2012
Страна: Япония
Производство студии: Toei Animation
Жанр: приключения, комедия, фэнтези, сёнэн

Режиссёр: Уда Коносукэ
Автор оригинала: Ода Эйичиро


Озвучка:Любительский (одноголосый RaiNDeath)
Хардсаб: нет
Софтсаб: нет

Описание: Это было во времена, когда пираты были владыками морей.
Множество кораблей бороздили океаны, сражаясь между собой, в поисках величайшего в мире сокровища,имя которому One Piece. Эта благодать была собрана за долгие годы приключений легендарным пиратским капитаном, Золотым Роджером, который по праву заслужил титул Короля Пиратов.
Наш главный герой - простой парнишка по имени Манки Д. Луффи, который всегда хотел стать пиратом.
Однажды, он случайно съел один из Дьявольских фруктов, которые даруют людям нечеловеческие возможности,и стал резиновым человеком - лучше увидеть самим.

Качество: WebRip
Продолжительность: 24 мин.

Формат: MP4
Видео кодек: H.264
Аудио кодек: MP3
Свойства видео: 848x480, 700 kbps, 23,976 fps, 0.072 bit/pixel
Свойства аудио: 128 kbps, 2 ch, 48,0 KHz

"Mediainfo" ▼TextОбщее
Полное имя : L:загрузкинарутоаватарOne_Piece_552_Rain.Death.mp4
Формат : MPEG-4
Профиль формата : Base Media
Идентификатор кодека : isom
Размер файла : 142 Мбайт
Продолжительность : 23 м.
Общий поток : 832 Кбит/сек
Дата кодирования : UTC 2012-06-16 10:27:03
Дата пометки : UTC 2012-06-16 10:27:03

Видео
Идентификатор : 1
Формат : AVC
Формат/Информация : Advanced Video Codec
Профиль формата : [email protected]
Параметр CABAC формата : Да
Параметр ReFrames формата : 4 кадра
Идентификатор кодека : avc1
Идентификатор кодека/Информация : Advanced Video Coding
Продолжительность : 23 м.
Битрейт : 700 Кбит/сек
Максимальный битрейт : 4610 Кбит/сек
Ширина : 848 пикселей
Высота : 480 пикселей
Соотношение сторон : 16:9
Режим частоты кадров : Переменный
Частота кадров : 23,976 кадра/сек
Минимальная частота кадров : 23,810 кадра/сек
Максимальная частота кадров : 24,246 кадра/сек
Цветовое пространство : YUV
Субдискретизация насыщенности : 4:2:0
Битовая глубина : 8 бит
Тип развёртки : Прогрессивная
Бит/(Пиксели*Кадры) : 0.072
Размер потока : 119 Мбайт (84%)
Библиотека кодирования : x264 core 120
Настройки программы : cabac=1 / ref=1 / deblock=1:0:0 / analyse=0x1:0x111 / me=hex / subme=2 / psy=1 / psy_rd=1.00:0.00 / mixed_ref=0 / me_range=16 / chroma_me=1 / trellis=0 / 8x8dct=0 / cqm=0 / deadzone=21,11 / fast_pskip=1 / chroma_qp_offset=0 / threads=6 / sliced_threads=0 / nr=0 / decimate=1 / interlaced=0 / bluray_compat=0 / constrained_intra=0 / bframes=3 / b_pyramid=2 / b_adapt=1 / b_bias=0 / direct=1 / weightb=1 / open_gop=0 / weightp=1 / keyint=240 / keyint_min=24 / scenecut=40 / intra_refresh=0 / rc_lookahead=10 / rc=2pass / mbtree=1 / bitrate=700 / ratetol=1.0 / qcomp=0.60 / qpmin=3 / qpmax=69 / qpstep=4 / cplxblur=20.0 / qblur=0.5 / ip_ratio=1.40 / aq=1:1.00
Дата кодирования : UTC 2012-06-17 04:07:49
Дата пометки : UTC 2012-06-16 10:27:14
Основные цвета : BT.709-5, BT.1361, IEC 61966-2-4, SMPTE RP177
Характеристики трансфера : BT.709-5, BT.1361
Коэффициенты матрицы : BT.709-5, BT.1361, IEC 61966-2-4 709, SMPTE RP177

Аудио
Идентификатор : 2
Формат : MPEG Audio
Версия формата : Version 1
Профиль формата : Layer 3
Режим : Joint stereo
Расширение режима : MS Stereo
Идентификатор кодека : 6B
Продолжительность : 23 м.
Вид битрейта : Постоянный
Битрейт : 128 Кбит/сек
Максимальный битрейт : 132 Кбит/сек
Каналы : 2 канала
Частота : 48,0 КГц
Метод сжатия : С потерями
Задержка видео : -83 мс.
Размер потока : 21,8 Мбайт (15%)
Дата кодирования : UTC 2012-06-16 10:27:13
Дата пометки : UTC 2012-06-16 10:27:14


5d8f0c7e0ece1574cef9d74537ee69a43a422b3bВан Пис / One Piece // Сезон 15, Эпизод 552 (2012) [WebRip, любительская (одноголосая RaiNDeath] Ван Пис / One Piece // Сезон 15, Эпизод 552 (2012) [WebRip, любительская (одноголосая RaiNDeath] " />

Аплоадер: Админ, дата: 17-06-2012, 18:58, торрент скачан: 359 раз

Понравилась раздача? Посмотрите эти:
  • Наруто: Ураганные хроники / Naruto Shippuuden // Сезон 2, Эпизод 307 (2013) ...
  • Наруто: Ураганные хроники / Naruto Shippuuden // Сезон 2, Эпизод 304 (2013) ...
  • Наруто: Ураганные хроники / Naruto Shippuuden // Сезон 2, Эпизод 302 (2013) ...
  • Наруто: Ураганные хроники / Naruto Shippuuden // Сезон 2, Эпизод 301 (2013) ...
  • Нонито Донэйр - Хорхе Арсе / Nonito Donaire vs Jorge Arce [Бокс, 15.12.2012 ...
  • Кубок Англии 2012-2013 / 3-й раунд / Обзор / Суббота / ITV 1 HD [2013 г., ф ...
  • Ван Пис / One Piece // Сезон 15, Эпизод 538 (из >550) (2012) [HDTVRip, ориг ...
  • Ван Пис / One Piece // Сезон 15, Эпизод 539 (из >550) (2012) [HDTVRip, ориг ...
  • Ван Пис / One Piece // Сезон 15, Эпизод 541 (2012) [HDTVRip, оригинал, софт ...
  • Ван Пис / One Piece // Сезон 15, Эпизод 542 (2012) [HDTVRip, оригинал, софт ...
  • Ван Пис / One Piece // Сезон 15, Эпизод 543 (2012) [HDTVRip, оригинал, софт ...
  • Ван Пис / One Piece // Сезон 15, Эпизод 544 (2012) [HDTVRip, оригинал, софт ...
  • Ван Пис / One Piece // Сезон 15, Эпизод 545 (2012) [HDTVRip, оригинал, софт ...
  • Ван Пис / One Piece // Сезон 15, Эпизод 545 (2012) [HDTVRip, любительская ( ...
  • Ван Пис / One Piece // Сезон 15, Эпизод 546 (2012) [HDTVRip, любительская ( ...
  • Ван Пис / One Piece // Сезон 15, Эпизод 547 (2012) [HDTVRip, оригинал, софт ...
  • Ван Пис / One Piece // Сезон 15, Эпизод 547 (2012) [HDTVRip, любительская ( ...
  • Ван Пис / One Piece // Сезон 15, Эпизод 548 (2012) [HDTVRip, любительская ( ...
  • Ван Пис / One Piece // Сезон 15, Эпизод 549 (2012) [HDTVRip, любительская ( ...
  • Ван Пис / One Piece /Сезон 15, Эпизод 550 (2012) [HDTVRip, любительская (од ...
  • Ван Пис / One Piece / Сезон 15, Эпизод 561 (2012) [HDTVRip, любительская (о ...
  • Наруто: Ураганные хроники / Naruto Shippuuden // Сезон 2, Эпизод 282 (2012) ...
  • Наруто: Ураганные хроники / Naruto Shippuuden // Сезон 2, Эпизод 283 (2012) ...
  • Наруто: Ураганные хроники / Naruto Shippuuden // Сезон 2 , Эпизод 286 (2012 ...
  • Наруто: Ураганные хроники / Naruto Shippuuden // Сезон 2 / Эпизод 287 (2012 ...
  • Информация
    Посетители, находящиеся в группе Гости, не могут оставлять комментарии к данной публикации.